<?xml version="1.0" standalone="no"?>
<!DOCTYPE svg PUBLIC "-//W3C//DTD SVG 1.1//EN" "http://www.w3.org/Graphics/SVG/1.1/DTD/svg11.dtd" >
<svg xmlns="http://www.w3.org/2000/svg" xmlns:xlink="http://www.w3.org/1999/xlink" version="1.1">
<metadata>
Created by FontForge 20190801 at Mon Apr 30 14:31:53 2007
 By Jimmy Wärting
Copyright 1990-1993 as an unpublished work by Bitstream Inc.  All rights reserved.  Confidential.
</metadata>
<defs>
<font id="CharterITCbyBT-Bold" horiz-adv-x="500" >
  <font-face 
    font-family="ITC Charter"
    font-weight="700"
    font-stretch="normal"
    units-per-em="1000"
    panose-1="0 0 0 0 0 0 0 0 0 0"
    ascent="800"
    descent="-200"
    x-height="486"
    cap-height="671"
    bbox="-157 -236 1262 966"
    underline-thickness="90"
    underline-position="-154"
    stemh="53"
    stemv="122"
    unicode-range="U+0020-FB02"
  />
<missing-glyph horiz-adv-x="291" 
 />
    <glyph glyph-name=".notdef" horiz-adv-x="291" 
 />
    <glyph glyph-name="space" unicode=" " horiz-adv-x="291" 
 />
    <glyph glyph-name="exclam" unicode="!" horiz-adv-x="340" 
d="M170 145c41 0 75 -34 75 -77c0 -42 -34 -75 -75 -75c-40 0 -75 33 -75 75c0 43 34 77 75 77zM242 555l-45 -357h-53l-45 355c-3 22 -4 40 -4 55c0 47 29 76 75 76c47 0 75 -29 75 -82c0 -10 0 -26 -3 -47z" />
    <glyph glyph-name="quotedbl" unicode="&#x22;" horiz-adv-x="339" 
d="M78 418l-36 224c-1 7 -1 13 -1 19c0 34 17 53 46 53c30 0 47 -18 47 -53c0 -6 0 -13 -1 -19l-36 -224h-19zM242 418l-36 224c-1 7 -1 13 -1 19c0 34 18 53 47 53s47 -19 47 -52c0 -7 -1 -13 -2 -20l-36 -224h-19z" />
    <glyph glyph-name="numbersign" unicode="#" horiz-adv-x="736" 
d="M354 710l63 -18l-74 -214h133l76 232l63 -19l-74 -213h134v-62h-154l-44 -135h157v-60h-178l-78 -245l-64 17l75 228h-130l-80 -245l-63 18l77 227h-137v60h156l44 135h-151v62h171zM323 416l-44 -135h129l46 135h-131z" />
    <glyph glyph-name="dollar" unicode="$" horiz-adv-x="581" 
d="M268 742h54v-73c56 -1 115 -11 178 -28v-165h-65l-18 112c-21 13 -52 20 -95 23v-214c144 -37 211 -95 211 -195c0 -102 -78 -182 -212 -201v-103h-53v103c-82 3 -150 13 -207 30v173h67l20 -118c36 -18 74 -26 120 -27v228c-135 35 -198 94 -198 193s73 171 198 188v74z
M268 607c-52 -11 -81 -46 -81 -100c0 -46 29 -79 81 -96v196zM322 273v-210c58 9 93 51 93 107c0 52 -31 86 -93 103z" />
    <glyph glyph-name="percent" unicode="%" horiz-adv-x="888" 
d="M203 683c101 0 167 -78 167 -209c0 -132 -65 -211 -167 -211s-166 78 -166 211c0 132 65 209 166 209zM621 671h70l-418 -671h-70zM200 638c-44 0 -68 -55 -68 -164c0 -110 24 -165 68 -165c46 0 70 55 70 165c0 109 -25 164 -70 164zM696 407c101 0 167 -78 167 -209
c0 -132 -65 -210 -167 -210s-167 77 -167 210c0 132 66 209 167 209zM694 363c-44 0 -69 -56 -69 -165s25 -165 69 -165c46 0 69 55 69 165c0 109 -24 165 -69 165z" />
    <glyph glyph-name="ampersand" unicode="&#x26;" horiz-adv-x="741" 
d="M317 396c49 37 71 74 71 126c0 66 -33 105 -84 105c-47 0 -81 -35 -81 -84c0 -48 34 -91 94 -147zM355 361l157 -165c28 36 46 73 55 113l-12 17l-53 9v46h209v-46l-70 -13c-22 -66 -52 -121 -91 -167l91 -100l83 -7v-48h-210v24l-42 48c-64 -56 -133 -84 -209 -84
c-124 0 -210 85 -210 197c0 83 47 142 139 172c-61 49 -91 100 -91 158c0 97 84 169 210 169c120 0 193 -65 193 -159c0 -77 -50 -131 -149 -164zM233 324c-36 -27 -54 -62 -54 -104c0 -87 61 -151 147 -151c39 0 74 14 107 43z" />
    <glyph glyph-name="quoteright" unicode="&#x2019;" horiz-adv-x="255" 
d="M69 395l-21 30c62 37 93 84 93 137c0 5 0 10 -1 16h-60c-12 15 -19 32 -19 51c0 41 27 69 69 69c53 0 89 -41 89 -104c0 -82 -52 -156 -150 -199z" />
    <glyph glyph-name="parenleft" unicode="(" horiz-adv-x="428" 
d="M386 718v-51c-125 -17 -177 -142 -177 -383c0 -237 56 -361 177 -375v-51c-184 7 -295 159 -295 427c0 273 109 425 295 433z" />
    <glyph glyph-name="parenright" unicode=")" horiz-adv-x="428" 
d="M37 718c182 -9 292 -160 292 -430s-111 -422 -292 -430v51c124 15 177 140 177 380c0 239 -54 364 -177 378v51z" />
    <glyph glyph-name="asterisk" unicode="*" 
d="M250 718l47 -61l-39 -125h-17l-39 125zM374 598l72 -27l-43 -64l-130 -1l-5 16zM266 492l105 -77l-3 -77l-74 21l-41 125zM233 493l12 -10l-41 -124l-74 -21l-2 77zM125 597l107 -76l-5 -14l-131 1l-43 63z" />
    <glyph glyph-name="plus" unicode="+" horiz-adv-x="833" 
d="M458 596v-257h251v-81h-251v-258h-83v258h-251v81h251v257h83z" />
    <glyph glyph-name="comma" unicode="," horiz-adv-x="289" 
d="M31 -175v46c72 12 111 57 111 126v10h-62c-14 15 -21 33 -21 54c0 41 28 68 69 68c56 0 92 -40 92 -106c0 -102 -74 -185 -189 -198z" />
    <glyph glyph-name="hyphen" unicode="-" horiz-adv-x="326" 
d="M36 290h254v-98h-254v98z" />
    <glyph glyph-name="period" unicode="." horiz-adv-x="289" 
d="M144 151c44 0 80 -36 80 -80s-36 -79 -80 -79c-43 0 -78 35 -78 79c0 45 35 80 78 80z" />
    <glyph glyph-name="slash" unicode="/" horiz-adv-x="491" 
d="M396 671h75l-423 -764h-75z" />
    <glyph glyph-name="zero" unicode="0" horiz-adv-x="581" 
d="M293 683c155 0 255 -128 255 -348s-100 -347 -255 -347c-154 0 -253 127 -253 347c0 221 99 348 253 348zM294 627c-78 0 -118 -97 -118 -291s40 -291 118 -291c79 0 118 97 118 291s-39 291 -118 291z" />
    <glyph glyph-name="one" unicode="1" horiz-adv-x="581" 
d="M325 681h65v-611l11 -16l94 -4v-50h-347v50l100 6l12 18v492l-9 12l-142 -21v51z" />
    <glyph glyph-name="two" unicode="2" horiz-adv-x="581" 
d="M173 102h280l18 88h61v-190h-484v79c211 164 325 275 325 400c0 88 -47 140 -123 140c-18 0 -38 -4 -58 -12v-129c-22 -12 -43 -18 -63 -18c-44 0 -72 28 -72 70c0 83 91 153 235 153c134 0 219 -79 219 -195c0 -129 -116 -235 -338 -386z" />
    <glyph glyph-name="three" unicode="3" horiz-adv-x="581" 
d="M334 353c122 -9 189 -69 189 -160c0 -111 -108 -204 -271 -204c-131 0 -210 58 -210 125c0 38 29 65 71 65c12 0 24 -3 39 -8l32 -108c27 -10 49 -15 69 -15c76 0 134 61 134 139c0 73 -53 123 -138 123c-14 0 -34 -1 -62 -5v72c10 -1 19 -1 28 -1c95 0 148 46 148 124
c0 70 -51 118 -124 118c-17 0 -36 -4 -56 -12v-117c-15 -10 -33 -14 -53 -14c-43 0 -72 29 -72 69c0 72 87 138 223 138c133 0 217 -72 217 -169c0 -79 -56 -135 -164 -160z" />
    <glyph glyph-name="four" unicode="4" horiz-adv-x="581" 
d="M355 677h98v-417h113v-79h-113v-212h-117v212h-311v81zM336 539l-220 -279h220v279z" />
    <glyph glyph-name="five" unicode="5" horiz-adv-x="581" 
d="M96 671h393v-104h-312v-169c44 15 84 22 122 22c139 0 226 -79 226 -200c0 -130 -112 -229 -288 -229c-110 0 -182 57 -182 116c0 39 30 67 73 67c13 0 26 -2 39 -7l34 -113c16 -4 31 -5 47 -5c81 0 144 62 144 145c0 89 -63 145 -174 145c-41 0 -83 -5 -122 -14v346z
" />
    <glyph glyph-name="six" unicode="6" horiz-adv-x="581" 
d="M469 714v-74l-42 4c-132 -10 -215 -94 -240 -243c50 33 103 51 156 51c121 0 210 -94 210 -213c0 -153 -106 -252 -256 -252c-153 0 -250 113 -250 302c0 254 163 424 422 425zM181 347c-2 -21 -2 -42 -2 -61c0 -155 49 -237 130 -237c65 0 112 61 112 165
c0 98 -53 158 -133 158c-38 0 -74 -8 -107 -25z" />
    <glyph glyph-name="seven" unicode="7" horiz-adv-x="581" 
d="M76 671h479v-65l-324 -612v-28h-107l322 594h-289l-15 -93h-66v204z" />
    <glyph glyph-name="eight" unicode="8" horiz-adv-x="581" 
d="M347 379c34 32 52 75 52 123c0 73 -43 123 -106 123c-56 0 -96 -44 -96 -101c0 -63 49 -105 150 -145zM394 356c98 -35 145 -90 145 -174c0 -115 -94 -197 -255 -197c-148 0 -242 85 -242 194c0 77 47 133 135 159c-71 33 -106 85 -106 156c0 113 90 191 232 191
c129 0 210 -74 210 -173c0 -67 -41 -122 -119 -156zM222 314c-42 -37 -62 -75 -62 -124c0 -85 57 -144 133 -144c71 0 119 44 119 106c0 74 -62 112 -190 162z" />
    <glyph glyph-name="nine" unicode="9" horiz-adv-x="581" 
d="M405 321c6 27 10 59 10 98c0 133 -50 205 -125 205c-65 0 -115 -62 -115 -164c0 -104 53 -161 143 -161c27 0 56 7 87 22zM129 -53l-27 66l45 8c131 60 208 139 244 241c-48 -25 -95 -39 -144 -39c-117 0 -205 88 -205 216c0 145 103 244 262 244
c147 0 242 -102 242 -264c0 -206 -149 -387 -417 -472z" />
    <glyph glyph-name="colon" unicode=":" horiz-adv-x="340" 
d="M173 488c43 0 78 -35 78 -79s-35 -79 -78 -79s-78 35 -78 79s35 79 78 79zM173 151c44 0 78 -35 78 -80c0 -44 -35 -79 -78 -79c-42 0 -78 35 -78 79s35 80 78 80z" />
    <glyph glyph-name="semicolon" unicode=";" horiz-adv-x="340" 
d="M173 488c43 0 79 -35 79 -79s-36 -79 -79 -79s-78 35 -78 79s35 79 78 79zM68 -175v46c71 13 108 58 108 128v8h-60c-14 15 -21 32 -21 54c0 41 27 68 68 68c56 0 89 -40 89 -106c0 -101 -71 -185 -184 -198z" />
    <glyph glyph-name="less" unicode="&#x3c;" horiz-adv-x="833" 
d="M704 484l-456 -186l456 -186v-89l-575 236v78l575 237v-90z" />
    <glyph glyph-name="equal" unicode="=" horiz-adv-x="833" 
d="M709 440v-82h-585v82h585zM709 238v-81h-585v81h585z" />
    <glyph glyph-name="greater" unicode="&#x3e;" horiz-adv-x="833" 
d="M704 337v-78l-575 -236v89l456 186l-456 186v90z" />
    <glyph glyph-name="question" unicode="?" horiz-adv-x="487" 
d="M227 284v-91h-65v135c95 33 145 91 145 171c0 79 -48 126 -130 126h-3l-45 -113c-7 -1 -13 -1 -20 -1c-47 0 -74 23 -74 62c0 60 67 110 177 110c137 0 225 -75 225 -184c0 -98 -70 -170 -210 -215zM196 145c42 0 76 -33 76 -78c0 -40 -34 -74 -77 -74
c-38 0 -73 33 -73 77c0 41 33 75 74 75z" />
    <glyph glyph-name="at" unicode="@" horiz-adv-x="917" 
d="M533 442c-6 1 -12 2 -18 2c-79 0 -145 -88 -145 -211c0 -70 25 -110 72 -110c31 0 61 25 91 67l36 199zM530 134c-50 -52 -95 -78 -140 -78c-71 0 -124 62 -124 161c0 64 19 122 55 171c48 66 120 104 189 104c31 0 63 -9 96 -27l17 23h68c-12 -31 -19 -66 -27 -104
l-36 -170c-6 -27 -8 -46 -8 -58c0 -23 14 -33 34 -33c26 0 57 12 83 46c41 53 65 125 65 200c0 164 -109 274 -279 274c-100 0 -186 -34 -253 -98c-80 -76 -119 -170 -119 -286c0 -215 138 -357 343 -357c86 0 172 25 254 73l18 -40c-103 -59 -206 -88 -298 -88
c-109 0 -208 39 -283 113c-73 71 -110 167 -110 285c0 133 48 246 142 333c79 73 187 115 306 115c199 0 330 -130 330 -320c0 -74 -18 -141 -54 -197c-49 -77 -126 -120 -190 -120c-53 0 -79 25 -79 78z" />
    <glyph glyph-name="A" unicode="A" horiz-adv-x="651" 
d="M275 678h105l230 -619l59 -10v-49h-270v49l63 6l7 13l-60 170h-218l-60 -169l10 -13l63 -7v-49h-215v49l60 9zM297 541l-87 -247h176z" />
    <glyph glyph-name="B" unicode="B" horiz-adv-x="628" 
d="M29 671h300c148 0 222 -53 222 -157c0 -78 -48 -131 -143 -157c119 -3 182 -62 182 -166c0 -119 -89 -191 -252 -191h-309v49l59 5l16 16v533l-16 14l-59 5v49zM234 373c9 -1 18 -1 27 -1c104 0 152 40 152 130c0 78 -45 115 -139 115c-13 0 -26 -1 -40 -2v-242zM234 57
c17 -1 33 -2 48 -2c116 0 168 39 168 135c0 85 -49 127 -150 127c-17 0 -39 0 -66 -2v-258z" />
    <glyph glyph-name="C" unicode="C" horiz-adv-x="638" 
d="M601 24c-67 -24 -137 -36 -210 -36c-72 0 -136 16 -184 45c-104 62 -166 174 -166 302c0 102 36 191 104 256c63 61 148 92 252 92c69 0 138 -13 204 -37v-167h-74l-19 107l-14 17c-26 10 -52 15 -79 15c-137 0 -227 -105 -227 -282c0 -179 92 -285 240 -285
c17 0 37 3 61 9l15 15l25 121h72v-172z" />
    <glyph glyph-name="D" unicode="D" horiz-adv-x="716" 
d="M321 671c232 0 360 -126 360 -336c0 -118 -42 -210 -123 -272c-62 -48 -137 -63 -237 -63h-292v49l61 5l16 16v531l-16 16l-61 5v49h292zM238 615v-559h58c159 0 236 92 236 280s-77 279 -236 279h-58z" />
    <glyph glyph-name="E" unicode="E" horiz-adv-x="596" 
d="M29 0v49l61 5l16 16v533l-16 14l-61 5v49h504v-157h-70l-15 88l-13 13h-199v-238h130l14 14l10 72h59v-232h-59l-10 72l-14 14h-130v-260h232l13 16l17 106h68v-179h-537z" />
    <glyph glyph-name="F" unicode="F" horiz-adv-x="552" 
d="M30 0v49l60 5l16 16v533l-16 14l-64 5v49h502v-168h-69l-15 97l-13 13h-193v-249h134l14 13l10 73h59v-233h-59l-10 73l-14 13h-134v-233l17 -16l70 -5v-49h-295z" />
    <glyph glyph-name="G" unicode="G" horiz-adv-x="710" 
d="M398 330h292v-49l-58 -5l-16 -14v-233c-76 -27 -151 -41 -224 -41c-74 0 -139 18 -191 49c-100 60 -160 170 -160 298c0 210 141 347 364 347c67 0 137 -11 210 -33v-170h-72l-19 106l-15 18c-27 11 -54 16 -83 16c-149 0 -241 -104 -241 -279c0 -182 93 -285 253 -285
c16 0 33 1 50 3v204l-16 14l-74 5v49z" />
    <glyph glyph-name="H" unicode="H" horiz-adv-x="760" 
d="M30 671h283v-49l-60 -5l-16 -16v-219h289v219l-15 16l-60 5v49h282v-49l-58 -5l-16 -16v-531l16 -16l58 -5v-49h-282v49l60 5l15 16v252h-289v-252l16 -16l60 -5v-49h-283v49l58 5l16 16v531l-16 16l-58 5v49z" />
    <glyph glyph-name="I" unicode="I" horiz-adv-x="354" 
d="M30 0v49l66 5l16 16v533l-16 14l-66 5v49h299v-49l-67 -5l-16 -14v-533l16 -16l67 -5v-49h-299z" />
    <glyph glyph-name="J" unicode="J" horiz-adv-x="465" 
d="M256 603l-16 14l-70 5v49h294v-49l-61 -5l-16 -14v-341c0 -187 -69 -274 -232 -274c-46 0 -94 8 -143 24v180h73l23 -132l14 -13c5 0 11 -1 16 -1c91 0 118 69 118 215v342z" />
    <glyph glyph-name="K" unicode="K" horiz-adv-x="650" 
d="M30 0v49l61 5l15 16v533l-15 14l-61 5v49h284v-49l-59 -5l-16 -14v-262h28l217 263l-6 13l-56 5v49h225v-49l-70 -7l-190 -227l213 -333l72 -6v-49h-207v35l-168 259h-58v-224l16 -16l59 -5v-49h-284z" />
    <glyph glyph-name="L" unicode="L" horiz-adv-x="543" 
d="M27 0v49l61 5l17 16v533l-14 14l-64 5v49h288v-49l-61 -5l-16 -14v-545h192l13 16l15 122h74v-196h-505z" />
    <glyph glyph-name="M" unicode="M" horiz-adv-x="883" 
d="M25 0v49l64 7l14 18v530l-12 13l-66 6v48h262v-28l156 -459l155 458v29h265v-48l-68 -6l-11 -14v-533l11 -16l68 -5v-49h-277v49l62 5l10 16v537l-208 -607h-72l-203 602v-528l15 -18l62 -7v-49h-227z" />
    <glyph glyph-name="N" unicode="N" horiz-adv-x="727" 
d="M26 0v48l59 8l18 18v529l-14 14l-64 6v48h230v-27l306 -475v428l-18 19l-61 7v48h228v-48l-59 -7l-17 -19v-597h-112l-346 537v-463l16 -18l62 -8v-48h-228z" />
    <glyph glyph-name="O" unicode="O" horiz-adv-x="752" 
d="M41 339c0 109 35 197 103 260c63 58 141 87 234 87c86 0 159 -26 220 -78c77 -66 119 -162 119 -275c0 -105 -37 -196 -107 -261c-62 -58 -142 -89 -233 -89c-86 0 -162 27 -222 80c-75 65 -114 160 -114 276zM380 622c-111 0 -190 -106 -190 -285
c0 -183 81 -292 188 -292c110 0 189 108 189 285c0 185 -78 292 -187 292z" />
    <glyph glyph-name="P" unicode="P" horiz-adv-x="587" 
d="M29 0v49l59 5l18 16v533l-15 14l-66 5v49h270c186 0 273 -58 273 -202c0 -139 -94 -222 -262 -222c-18 0 -40 1 -68 3v-180l15 -16l71 -5v-49h-295zM238 307c13 -1 25 -2 36 -2c104 0 156 54 156 160c0 95 -49 148 -140 148h-52v-306z" />
    <glyph glyph-name="Q" unicode="Q" horiz-adv-x="752" 
d="M454 -5c4 -77 46 -113 135 -113c28 0 59 4 92 12v-51c-63 -14 -117 -21 -165 -21c-138 0 -203 53 -203 169v4c-167 25 -274 158 -274 341c0 78 20 147 58 207c57 88 160 144 277 144c90 0 164 -25 224 -77c78 -67 122 -165 122 -278c0 -174 -105 -306 -266 -337zM190 339
c0 -181 83 -289 193 -289c107 0 185 106 185 285c0 180 -81 287 -192 287c-108 0 -186 -105 -186 -283z" />
    <glyph glyph-name="R" unicode="R" horiz-adv-x="671" 
d="M31 671h304c155 0 235 -59 235 -170c0 -92 -58 -151 -172 -172c48 -11 82 -30 105 -62c31 -44 40 -97 59 -148c21 -55 50 -72 117 -72c4 0 8 2 13 2v-48c-39 -5 -69 -8 -92 -8c-86 0 -144 38 -171 110c-20 55 -28 106 -57 144c-26 33 -65 48 -121 48h-15v-225l16 -16
l61 -5v-49h-282v49l59 5l16 16v533l-16 14l-59 5v49zM236 614v-261c13 -1 25 -1 36 -1c107 0 158 42 158 134c0 82 -51 128 -148 128h-46z" />
    <glyph glyph-name="S" unicode="S" horiz-adv-x="568" 
d="M59 22v181h76l16 -120l13 -15c29 -9 58 -14 88 -14c81 0 129 40 129 95s-36 90 -107 126c-40 20 -88 37 -131 74c-46 39 -70 88 -70 137c0 111 93 197 236 197c62 0 125 -12 188 -34v-162h-72l-17 104l-14 14c-19 9 -43 14 -73 14c-73 0 -118 -39 -118 -95
c0 -47 28 -76 81 -108c32 -19 84 -35 143 -72c58 -37 90 -91 90 -150c0 -119 -101 -205 -265 -205c-64 0 -130 11 -193 33z" />
    <glyph glyph-name="T" unicode="T" horiz-adv-x="603" 
d="M16 671h577v-177h-69l-17 107l-15 13h-120v-544l17 -16l65 -5v-49h-299v49l65 5l17 16v544h-120l-16 -13l-16 -107h-69v177z" />
    <glyph glyph-name="U" unicode="U" horiz-adv-x="705" 
d="M20 671h287v-49l-62 -5l-14 -14v-350c0 -129 43 -186 163 -186c111 0 152 62 152 195v337l-15 17l-64 6v49h227v-49l-61 -6l-14 -17v-347c0 -184 -76 -264 -264 -264c-100 0 -173 30 -214 82c-39 50 -44 110 -44 187v346l-14 14l-63 5v49z" />
    <glyph glyph-name="V" unicode="V" horiz-adv-x="635" 
d="M-21 671h275v-49l-58 -5l-11 -15l166 -456l161 456l-11 15l-60 5v49h219v-49l-65 -13l-222 -611h-101l-227 612l-66 12v49z" />
    <glyph glyph-name="W" unicode="W" horiz-adv-x="946" 
d="M227 0l-162 608l-63 14v49h262v-49l-62 -6l-8 -14l112 -415l144 484h101l148 -495l105 420l-12 14l-66 12v49h218v-49l-63 -14l-153 -608h-97l-155 512l-152 -512h-97z" />
    <glyph glyph-name="X" unicode="X" horiz-adv-x="637" 
d="M14 671h283v-48l-60 -5l-8 -13l114 -186l130 183l-9 14l-55 7v48h224v-48l-62 -8l-186 -252l192 -302l67 -13v-48h-290v48l63 8l7 13l-122 200l-142 -198l6 -17l65 -6v-48h-231v48l64 10l195 267l-182 288l-63 10v48z" />
    <glyph glyph-name="Y" unicode="Y" horiz-adv-x="610" 
d="M-11 671h273v-49l-56 -5l-9 -12l137 -254l143 245l-8 16l-60 11v48h218v-49l-59 -11l-190 -323v-219l16 -14l68 -5v-50h-300v50l67 5l16 14v195l-192 348l-64 10v49z" />
    <glyph glyph-name="Z" unicode="Z" horiz-adv-x="592" 
d="M62 671h482v-55l-350 -557h256l10 14l18 121h72v-194h-506v55l350 558h-226l-19 -12l-16 -107h-71v177z" />
    <glyph glyph-name="bracketleft" unicode="[" horiz-adv-x="443" 
d="M136 708h269v-56h-154v-729h154v-55h-269v840z" />
    <glyph glyph-name="backslash" unicode="\" horiz-adv-x="491" 
d="M-7 671h75l418 -764h-75z" />
    <glyph glyph-name="bracketright" unicode="]" horiz-adv-x="443" 
d="M42 708h270v-840h-270v55h154v730h-154v55z" />
    <glyph glyph-name="asciicircum" unicode="^" horiz-adv-x="1000" 
d="M552 714l245 -276h-51l-247 194l-247 -194h-51l246 276h105z" />
    <glyph glyph-name="underscore" unicode="_" 
d="M500 -152v-84h-500v84h500z" />
    <glyph glyph-name="quoteleft" unicode="&#x2018;" horiz-adv-x="255" 
d="M200 698l21 -30c-62 -38 -93 -84 -93 -136c0 -6 0 -11 1 -17h60c12 -15 19 -31 19 -50c0 -41 -28 -70 -70 -70c-52 0 -88 41 -88 104c0 84 52 155 150 199z" />
    <glyph glyph-name="a" unicode="a" horiz-adv-x="544" 
d="M343 57c-64 -43 -118 -66 -172 -66c-77 0 -131 55 -131 130c0 115 95 145 303 191v30c0 72 -28 104 -94 104c-15 0 -30 -1 -48 -6v-94h-92c-30 0 -46 10 -46 37c0 57 86 116 218 116c141 0 187 -49 187 -177v-259l13 -14l53 -5v-44h-178zM343 98v163
c-118 -26 -171 -52 -171 -118c0 -46 29 -75 75 -75c25 0 57 10 96 30z" />
    <glyph glyph-name="b" unicode="b" horiz-adv-x="577" 
d="M157 739h48v-286c54 30 101 45 145 45c114 0 197 -92 197 -227c0 -116 -55 -202 -158 -248c-37 -16 -93 -24 -170 -24h-27l-111 2v652h-72v39zM205 54c10 -1 20 -1 30 -1c122 0 178 60 178 192c0 113 -54 175 -140 175c-23 0 -45 -3 -68 -8v-358z" />
    <glyph glyph-name="c" unicode="c" horiz-adv-x="476" 
d="M464 45c-64 -35 -124 -53 -189 -53c-145 0 -240 101 -240 246c0 152 108 259 258 259c103 0 165 -48 165 -109c0 -39 -30 -68 -72 -68c-21 0 -41 6 -59 19v106c-9 2 -18 3 -25 3c-70 0 -130 -72 -130 -186c0 -120 60 -191 153 -191c21 0 42 4 66 11c22 7 46 18 73 34v-71
z" />
    <glyph glyph-name="d" unicode="d" horiz-adv-x="596" 
d="M389 652h-73v40l149 47h46v-675l14 -16l51 -4v-44h-187v56c-57 -42 -106 -65 -158 -65c-112 0 -194 97 -194 241c0 162 105 268 262 268c24 0 54 -3 90 -10v162zM389 95v334c-29 10 -53 15 -74 15c-85 0 -144 -72 -144 -191c0 -112 52 -177 135 -177c24 0 51 7 83 19z
" />
    <glyph glyph-name="e" unicode="e" horiz-adv-x="524" 
d="M491 124v-74c-66 -39 -137 -59 -207 -59c-149 0 -247 100 -247 251c0 153 103 258 247 258c131 0 208 -82 208 -226v-19h-327v-3c0 -115 62 -183 161 -183c53 0 107 18 165 55zM361 308v11c0 83 -32 126 -87 126c-60 0 -101 -50 -109 -137h196z" />
    <glyph glyph-name="f" unicode="f" horiz-adv-x="341" 
d="M31 0v46l50 5l14 16v347h-65v38l65 30c0 96 33 168 102 219c37 28 80 42 121 42c58 0 94 -30 94 -73c0 -27 -20 -49 -58 -62l-97 86c-25 -27 -39 -78 -39 -152v-68h134v-60h-134v-348l16 -15l67 -5v-46h-270z" />
    <glyph glyph-name="g" unicode="g" horiz-adv-x="551" 
d="M407 468h148v-57h-108c15 -26 23 -51 23 -77c0 -96 -81 -166 -213 -166c-9 0 -19 0 -29 1c-5 -13 -8 -25 -8 -37c0 -7 1 -16 3 -27l68 -9c145 -21 219 -51 219 -136c0 -94 -108 -177 -269 -177c-132 0 -207 56 -207 137c0 62 39 104 103 110c-9 19 -13 36 -13 50
c0 33 18 62 55 95c-81 23 -124 78 -124 150c0 102 82 172 214 172c43 0 89 -9 138 -29zM267 450c-50 0 -84 -43 -84 -116c0 -76 34 -121 82 -121c47 0 81 46 81 122c0 71 -35 115 -79 115zM198 19c-28 -23 -42 -52 -42 -83c0 -54 49 -100 116 -100c72 0 119 43 119 94
c0 48 -37 63 -108 75z" />
    <glyph glyph-name="h" unicode="h" horiz-adv-x="597" 
d="M164 739h48v-302c72 39 127 61 171 61c92 0 137 -55 137 -166v-268l13 -15l53 -4v-45h-245v45l43 4l14 15v239c0 74 -28 108 -90 108c-26 0 -58 -6 -96 -17v-330l15 -15l44 -4v-45h-247v45l51 4l14 15v589h-73v39z" />
    <glyph glyph-name="i" unicode="i" horiz-adv-x="305" 
d="M162 724c45 0 75 -32 75 -73c0 -45 -32 -76 -74 -76c-40 0 -73 30 -73 74c0 43 31 75 72 75zM173 496h48v-432l15 -15l56 -4v-45h-262v45l54 4l14 15v345h-66v40z" />
    <glyph glyph-name="j" unicode="j" horiz-adv-x="297" 
d="M109 409h-71v39l151 48h42v-398c0 -100 -8 -173 -54 -232c-39 -50 -101 -80 -166 -80c-56 0 -91 30 -91 70c0 32 22 59 58 66l98 -91c25 34 33 99 33 198v380zM94 649c0 44 30 75 75 75c41 0 73 -32 73 -76c0 -41 -34 -73 -75 -73c-40 0 -73 30 -73 74z" />
    <glyph glyph-name="k" unicode="k" horiz-adv-x="553" 
d="M25 0v44l52 5l14 15v589h-73v39l154 47h42v-480h22l143 167l-7 11l-44 5v44h204v-44l-65 -8l-114 -127l159 -258l59 -5v-44h-192v39l-116 187h-49v-164l13 -14l50 -4v-44h-252z" />
    <glyph glyph-name="l" unicode="l" horiz-adv-x="304" 
d="M23 0v44l58 6l14 14v588h-72v39l151 48h44v-673l15 -16l58 -6v-44h-268z" />
    <glyph glyph-name="m" unicode="m" horiz-adv-x="892" 
d="M501 430c79 45 139 67 177 67c93 0 139 -54 139 -165v-268l13 -15l53 -4v-45h-246v45l43 4l14 15v239c0 75 -26 108 -92 108c-25 0 -53 -7 -86 -19v-328l14 -15l45 -5v-44h-236v45l41 4l14 17v243c0 70 -26 103 -90 103c-24 0 -51 -6 -84 -18v-330l14 -15l42 -4v-45h-245
v45l51 4l14 15v345h-65v40l141 48h48v-60c67 40 120 60 164 60c51 0 90 -21 117 -67z" />
    <glyph glyph-name="n" unicode="n" horiz-adv-x="605" 
d="M31 0v45l51 4l14 15v345h-68v40l144 48h48v-60c71 39 126 60 171 60c92 0 136 -54 136 -165v-268l13 -15l53 -4v-45h-245v45l43 4l14 15v239c0 74 -27 108 -90 108c-25 0 -57 -6 -95 -17v-330l14 -15l44 -4v-45h-247z" />
    <glyph glyph-name="o" unicode="o" horiz-adv-x="577" 
d="M296 499c153 0 251 -100 251 -258c0 -148 -101 -249 -259 -249c-150 0 -251 100 -251 251c0 154 102 256 259 256zM292 446c-72 0 -116 -70 -116 -200s45 -201 115 -201c74 0 118 69 118 199c0 131 -45 202 -117 202z" />
    <glyph glyph-name="p" unicode="p" horiz-adv-x="591" 
d="M23 -219v46l54 5l14 15v562h-69v40l146 48h45v-61c59 41 109 61 158 61c105 0 189 -94 189 -234c0 -160 -103 -264 -265 -264c-22 0 -49 2 -82 6v-160l15 -14l63 -4l-1 -46h-267zM213 60c23 -5 44 -7 64 -7c88 0 147 72 147 193c0 107 -51 167 -132 167
c-23 0 -49 -7 -79 -19v-334z" />
    <glyph glyph-name="q" unicode="q" horiz-adv-x="575" 
d="M509 486c-2 -34 -3 -53 -3 -58v-583l15 -14l50 -3v-46h-267v46l64 4l15 14v197c-57 -31 -105 -47 -149 -47c-113 0 -197 94 -197 233c0 169 113 270 316 270c44 0 96 -5 156 -13zM383 439c-24 3 -41 5 -54 5c-99 0 -157 -69 -157 -193c0 -114 54 -176 141 -176
c19 0 43 2 70 7v357z" />
    <glyph glyph-name="r" unicode="r" horiz-adv-x="421" 
d="M29 0v45l53 4l14 15v345h-72v40l147 48h48l-4 -103c35 38 75 72 117 102c8 1 15 1 22 1c22 0 44 -5 66 -16l-13 -138h-52c-15 24 -36 37 -62 37c-20 0 -44 -10 -74 -29v-287l15 -15l71 -4v-45h-276z" />
    <glyph glyph-name="s" unicode="s" horiz-adv-x="447" 
d="M395 475v-133h-60l-10 75l-12 11c-21 10 -43 16 -66 16c-49 0 -76 -23 -76 -60c0 -42 34 -59 93 -88c89 -43 146 -70 146 -142c0 -101 -75 -165 -204 -165c-48 0 -104 8 -165 25v148h61l11 -86l10 -11c26 -14 55 -21 85 -21c54 0 84 28 84 72c0 55 -54 64 -132 103
c-74 37 -112 72 -112 132c0 87 73 149 196 149c50 0 101 -8 151 -25z" />
    <glyph glyph-name="t" unicode="t" horiz-adv-x="358" 
d="M84 414h-65v38l74 42l52 104h63v-124h148v-60h-148v-249c0 -71 17 -97 83 -97c24 0 45 2 65 7v-48c-60 -22 -111 -32 -153 -32c-33 0 -60 7 -83 22c-34 23 -36 55 -36 106v291z" />
    <glyph glyph-name="u" unicode="u" horiz-adv-x="600" 
d="M164 499h48v-310c0 -78 26 -112 95 -112c24 0 53 6 86 16v319h-65v39l142 48h46v-435l14 -15l52 -4v-45h-189v55c-63 -41 -115 -64 -168 -64c-93 0 -137 56 -137 171v250h-65v39z" />
    <glyph glyph-name="v" unicode="v" horiz-adv-x="513" 
d="M-6 487h254v-46l-52 -5l-11 -13l104 -292l114 291l-8 14l-51 5v46h190v-46l-58 -7l-172 -434h-90l-160 435l-60 6v46z" />
    <glyph glyph-name="w" unicode="w" horiz-adv-x="799" 
d="M-1 487h248v-46l-49 -7l-11 -14l81 -288l117 355h100l109 -355l88 289l-7 14l-53 6v46h189v-46l-56 -7l-136 -434h-101l-111 359l-119 -359h-100l-129 435l-60 6v46z" />
    <glyph glyph-name="x" unicode="x" horiz-adv-x="531" 
d="M14 487h241v-45l-38 -3l-5 -11l80 -119l87 125l-51 8v45h184v-45l-55 -8l-128 -166l149 -215l53 -10v-43h-234v43l35 5l4 10l-88 134l-94 -138l51 -11v-43h-194v43l59 12l140 179l-139 199l-57 9v45z" />
    <glyph glyph-name="y" unicode="y" horiz-adv-x="515" 
d="M-4 486h254v-43l-51 -6l-10 -14l108 -283l109 282l-9 15l-53 6v43h192v-43l-54 -9l-193 -469c-49 -118 -120 -184 -186 -184c-48 0 -86 36 -86 74c0 29 18 54 52 71l87 -60c26 21 53 62 78 122l-178 446l-60 9v43z" />
    <glyph glyph-name="z" unicode="z" horiz-adv-x="495" 
d="M46 0v62l258 370h-162l-13 -14l-10 -83h-65v151h396v-52l-265 -378h185l15 16l12 92h68v-164h-419z" />
    <glyph glyph-name="braceleft" unicode="{" horiz-adv-x="493" 
d="M421 705v-51c-98 -3 -123 -35 -123 -125v-63c0 -105 -43 -158 -145 -175c100 -16 145 -70 145 -172v-73c0 -95 22 -126 123 -127v-53c-12 0 -23 -1 -34 -1c-150 0 -204 48 -204 186v81c0 97 -29 131 -117 131h-20v57h20c90 0 117 34 117 128v84c0 127 60 173 213 173h25z
" />
    <glyph glyph-name="bar" unicode="|" 
d="M294 764v-1000h-87v1000h87z" />
    <glyph glyph-name="braceright" unicode="}" horiz-adv-x="493" 
d="M62 705h21c157 0 217 -44 217 -173v-84c0 -93 28 -129 115 -129c7 0 14 1 22 1v-57h-20c-88 0 -117 -34 -117 -131v-81c0 -139 -55 -186 -208 -186c-10 0 -20 1 -30 1v53c102 1 124 33 124 127v73c0 102 44 156 144 172c-103 17 -144 70 -144 175v63
c0 91 -26 122 -124 125v51z" />
    <glyph glyph-name="asciitilde" unicode="~" horiz-adv-x="833" 
d="M747 293c-65 -45 -126 -69 -186 -69c-29 0 -61 6 -93 17c-69 23 -129 49 -193 49c-58 0 -117 -28 -188 -78v91c69 47 131 70 189 70c57 0 102 -15 143 -29c49 -17 94 -36 143 -36c58 0 117 26 185 75v-90z" />
    <glyph glyph-name="exclamdown" unicode="&#xa1;" horiz-adv-x="340" 
d="M170 347c-41 0 -75 33 -75 76c0 42 34 76 75 76c40 0 75 -34 75 -76c0 -43 -34 -76 -75 -76zM97 -64l46 358h52l46 -355c3 -22 4 -40 4 -55c0 -47 -30 -77 -76 -77c-47 0 -74 30 -74 83v14c0 9 0 19 2 32z" />
    <glyph glyph-name="cent" unicode="&#xa2;" horiz-adv-x="581" 
d="M305 612h55v-100c48 -1 95 -10 143 -29v-144h-59l-15 98c-23 13 -45 18 -69 18v-398c24 0 47 5 69 15l15 104h60v-151c-40 -15 -88 -22 -144 -24v-103h-55v104c-149 11 -246 113 -246 251c0 142 93 242 246 257v102zM305 453c-74 -21 -119 -93 -119 -201
c0 -100 47 -173 119 -193v394z" />
    <glyph glyph-name="sterling" unicode="&#xa3;" horiz-adv-x="581" 
d="M421 504v116c-12 4 -25 5 -37 5c-86 0 -118 -66 -118 -207c0 -18 1 -38 2 -59h181v-60h-180c0 -95 -32 -159 -101 -198l2 -8c33 5 57 7 71 7h299v-100h-497v72c79 20 104 77 104 191c0 12 -1 24 -1 36h-70v60h69c-2 20 -3 40 -3 58c0 169 85 262 226 262
c102 0 170 -53 170 -115c0 -39 -29 -68 -77 -68c-10 0 -23 3 -40 8z" />
    <glyph glyph-name="fraction" unicode="&#x2044;" horiz-adv-x="185" 
d="M271 671h71l-428 -671h-71z" />
    <glyph glyph-name="yen" unicode="&#xa5;" horiz-adv-x="595" 
d="M-7 671h263v-49l-54 -5l-9 -12l131 -254l135 245l-8 16l-56 10v49h208v-49l-56 -11l-101 -181h132v-50h-162l-53 -96h215v-49h-213v-166l16 -14l70 -5v-50h-299v50l68 5l17 14v166h-215v49h205l-49 96h-156v50h126l-94 182l-61 10v49z" />
    <glyph glyph-name="florin" unicode="&#x192;" horiz-adv-x="581" 
d="M105 309v60h112v20c0 98 13 168 55 215c44 49 113 79 169 79c55 0 94 -36 94 -77c0 -29 -21 -54 -61 -73l-93 95c-37 -35 -44 -92 -44 -180v-79h156v-60h-156v-79c0 -110 -9 -190 -34 -240c-45 -88 -123 -138 -200 -138c-56 0 -91 29 -91 68c0 29 19 56 54 73l101 -85
c42 40 50 103 50 197v204h-112z" />
    <glyph glyph-name="section" unicode="&#xa7;" 
d="M423 695v-136h-53l-10 82c-33 18 -62 27 -91 27c-57 0 -96 -34 -96 -79c0 -56 56 -71 142 -114c94 -47 139 -98 139 -169c0 -68 -44 -132 -121 -163c69 -36 101 -75 101 -132c0 -89 -75 -153 -203 -153c-53 0 -106 11 -160 32l-1 137h58l13 -91c32 -17 63 -25 92 -25
c59 0 97 35 97 79c0 62 -64 84 -165 133c-79 38 -119 93 -119 163c0 72 39 123 118 157c-67 35 -98 74 -98 131c0 88 74 145 205 145c48 0 98 -8 152 -24zM216 415c-55 -21 -84 -57 -84 -101c0 -60 51 -97 152 -143c54 32 81 65 81 106c0 54 -50 96 -149 138z" />
    <glyph glyph-name="currency" unicode="&#xa4;" horiz-adv-x="606" 
d="M181 599c36 27 76 40 122 40s87 -13 123 -40l99 99l46 -45l-100 -100c26 -35 39 -76 39 -121s-13 -86 -39 -121l100 -100l-46 -45l-99 100c-37 -27 -76 -40 -122 -40s-87 13 -123 40l-99 -100l-45 45l99 100c-26 35 -39 76 -39 121s13 86 39 121l-99 100l45 45zM446 432
c0 77 -64 142 -142 142s-142 -65 -142 -142c0 -78 63 -141 142 -141s142 63 142 141z" />
    <glyph glyph-name="quotesingle" unicode="'" horiz-adv-x="175" 
d="M78 418l-36 224c-1 7 -1 13 -1 19c0 34 17 53 46 53c30 0 47 -18 47 -53c0 -6 0 -13 -1 -19l-36 -224h-19z" />
    <glyph glyph-name="quotedblleft" unicode="&#x201c;" horiz-adv-x="475" 
d="M200 698l22 -30c-63 -38 -94 -85 -94 -137c0 -5 0 -11 1 -16h61c13 -15 18 -32 18 -51c0 -41 -27 -69 -69 -69c-52 0 -89 41 -89 104c0 84 51 155 150 199zM421 698l22 -30c-62 -38 -94 -84 -94 -137c0 -5 0 -11 1 -16h60c13 -15 19 -31 19 -50c0 -41 -28 -70 -70 -70
c-52 0 -88 41 -88 104c0 83 52 155 150 199z" />
    <glyph glyph-name="guillemotleft" unicode="&#xab;" horiz-adv-x="449" 
d="M208 426v-84l-108 -102l108 -102v-84l-173 144v84zM404 426v-84l-108 -102l108 -102v-84l-173 144v84z" />
    <glyph glyph-name="guilsinglleft" unicode="&#x2039;" horiz-adv-x="255" 
d="M207 426v-84l-108 -102l108 -102v-84l-172 144v84z" />
    <glyph glyph-name="guilsinglright" unicode="&#x203a;" horiz-adv-x="255" 
d="M38 426l172 -144v-84l-172 -144v84l108 102l-108 102v84z" />
    <glyph glyph-name="fi" unicode="&#xfb01;" horiz-adv-x="622" 
d="M351 612l-97 81c-27 -32 -36 -84 -36 -159v-60h219l55 27h45v-437l14 -15l53 -4v-45h-255v45l51 4l15 15v350h-197v-350l16 -15l52 -4v-45h-255v45l50 4l15 15v350h-65v38l65 30v4c0 92 32 161 97 212c39 31 85 47 124 47c51 0 80 -26 80 -64c0 -28 -15 -50 -46 -69z
M418 649c0 41 28 69 69 69c37 0 66 -30 66 -69c0 -40 -31 -70 -68 -70s-67 29 -67 70z" />
    <glyph glyph-name="fl" unicode="&#xfb02;" horiz-adv-x="627" 
d="M505 744h37v-678l15 -16l58 -6v-44h-265v44l54 6l16 14v586h-36l-31 -37l-95 82c-28 -30 -40 -83 -40 -161v-60h135v-60h-135v-350l16 -15l52 -5v-44h-255v44l50 5l15 15v350h-65v38l65 30v4c0 89 30 158 92 209c39 32 85 50 130 50c44 0 73 -16 85 -48z" />
    <glyph glyph-name="endash" unicode="&#x2013;" 
d="M0 286h500v-91h-500v91z" />
    <glyph glyph-name="dagger" unicode="&#x2020;" 
d="M250 718l53 -76l-44 -140h-17l-46 140zM88 535l144 -45v-19l-144 -40l-71 52zM410 535l73 -52l-73 -52l-141 40v19zM242 460h17l50 -166l-50 -424h-17l-49 424z" />
    <glyph glyph-name="daggerdbl" unicode="&#x2021;" 
d="M250 718l52 -76l-43 -140h-16l-44 140zM88 535l144 -45v-19l-144 -40l-71 52zM410 535l73 -52l-73 -52l-141 40v19zM243 460h15l52 -166l-52 -167h-15l-56 167zM88 157l144 -45v-18l-144 -41l-71 52zM410 157l73 -52l-73 -52l-141 41v18zM243 84h16l43 -140l-52 -76
l-51 76z" />
    <glyph glyph-name="periodcentered" unicode="&#xb7;" horiz-adv-x="289" 
d="M144 415c44 0 80 -36 80 -80c0 -43 -36 -79 -80 -79c-43 0 -78 35 -78 79s35 80 78 80z" />
    <glyph glyph-name="paragraph" unicode="&#xb6;" horiz-adv-x="491" 
d="M261 671h196v-43l-61 -10v-697h-57v702h-70v-361h-17c-157 0 -233 66 -233 202c0 147 76 207 242 207z" />
    <glyph glyph-name="bullet" unicode="&#x2022;" horiz-adv-x="590" 
d="M150 372c0 80 65 144 145 144c79 0 144 -64 144 -144c0 -79 -65 -145 -145 -145s-144 65 -144 145z" />
    <glyph glyph-name="quotesinglbase" unicode="&#x201a;" horiz-adv-x="255" 
d="M55 -174l-22 30c62 38 93 84 93 137c0 6 0 11 -1 17h-60c-12 15 -18 31 -18 50c0 41 26 69 68 69c53 0 89 -40 89 -103c0 -83 -51 -156 -149 -200z" />
    <glyph glyph-name="quotedblbase" unicode="&#x201e;" horiz-adv-x="475" 
d="M57 -174l-21 30c62 38 93 85 93 137c0 6 0 11 -1 17h-60c-13 14 -19 30 -19 50c0 42 28 69 70 69c53 0 89 -39 89 -102c0 -84 -53 -158 -151 -201zM278 -174l-21 30c62 39 93 84 93 136c0 6 0 12 -1 18h-60c-13 14 -19 31 -19 50c0 41 27 69 69 69c53 0 89 -40 89 -103
c0 -83 -52 -156 -150 -200z" />
    <glyph glyph-name="quotedblright" unicode="&#x201d;" horiz-adv-x="475" 
d="M69 395l-21 30c63 38 94 85 94 137c0 5 0 11 -1 16h-61c-13 14 -19 31 -19 51c0 42 28 69 70 69c53 0 89 -41 89 -103c0 -84 -53 -157 -151 -200zM290 395l-21 30c62 39 93 84 93 137c0 5 0 10 -1 16h-60c-13 14 -19 31 -19 50c0 42 27 70 69 70c53 0 89 -40 89 -103
c0 -84 -52 -157 -150 -200z" />
    <glyph glyph-name="guillemotright" unicode="&#xbb;" horiz-adv-x="449" 
d="M239 426l173 -144v-84l-173 -144v84l108 102l-108 102v84zM43 426l172 -144v-84l-172 -144v84l108 102l-108 102v84z" />
    <glyph glyph-name="ellipsis" unicode="&#x2026;" horiz-adv-x="1000" 
d="M166 151c44 0 80 -36 80 -80s-36 -79 -80 -79c-43 0 -78 35 -78 79c0 45 35 80 78 80zM833 151c44 0 79 -36 79 -80s-35 -79 -79 -79c-43 0 -79 35 -79 79c0 45 36 80 79 80zM500 151c44 0 79 -36 79 -80s-35 -79 -79 -79c-43 0 -79 35 -79 79c0 45 36 80 79 80z" />
    <glyph glyph-name="perthousand" unicode="&#x2030;" horiz-adv-x="1287" 
d="M203 683c101 0 167 -78 167 -209c0 -132 -65 -211 -167 -211s-166 78 -166 211c0 132 65 209 166 209zM621 671h70l-418 -671h-70zM200 638c-44 0 -68 -55 -68 -164s24 -165 68 -165c46 0 71 55 71 165c0 109 -26 164 -71 164zM696 407c101 0 167 -78 167 -209
c0 -132 -65 -210 -167 -210s-166 77 -166 210c0 131 65 209 166 209zM1095 407c101 0 167 -78 167 -209c0 -132 -65 -210 -167 -210s-167 77 -167 210c0 131 66 209 167 209zM694 363c-44 0 -69 -56 -69 -165s25 -165 69 -165c45 0 70 55 70 165c0 109 -25 165 -70 165z
M1093 363c-44 0 -69 -56 -69 -165s25 -165 69 -165c45 0 69 55 69 165c0 109 -24 165 -69 165z" />
    <glyph glyph-name="questiondown" unicode="&#xbf;" horiz-adv-x="487" 
d="M278 499c41 0 75 -34 75 -76c0 -43 -34 -76 -75 -76c-42 0 -75 33 -75 76c0 42 33 76 75 76zM247 298h65v-134c-96 -33 -144 -92 -144 -171s47 -126 129 -126h3l45 112c7 1 14 1 20 1c48 0 74 -22 74 -61c0 -60 -67 -111 -177 -111c-137 0 -224 76 -224 184
c0 98 70 170 209 215v91z" />
    <glyph glyph-name="grave" unicode="`" 
d="M86 742h124l97 -190h-68z" />
    <glyph glyph-name="acute" unicode="&#xb4;" 
d="M303 742h124l-154 -190h-67z" />
    <glyph glyph-name="circumflex" unicode="&#x2c6;" 
d="M206 742h88l110 -190h-77l-77 125l-76 -125h-78z" />
    <glyph glyph-name="tilde" unicode="&#x2dc;" 
d="M357 722h54v-16c0 -77 -34 -119 -87 -119c-65 0 -114 46 -145 46c-24 0 -37 -19 -37 -53v-10h-55v17c0 77 32 119 87 119c59 0 109 -47 144 -47c26 0 39 18 39 55v8z" />
    <glyph glyph-name="macron" unicode="&#xaf;" 
d="M86 675h331v-71h-331v71z" />
    <glyph glyph-name="breve" unicode="&#x2d8;" 
d="M98 719l51 -1v-6c0 -56 29 -74 102 -74c72 0 101 17 101 72v8l51 1v-11c0 -103 -44 -141 -152 -141s-153 37 -153 138v14z" />
    <glyph glyph-name="dotaccent" unicode="&#x2d9;" 
d="M250 713c35 0 65 -30 65 -68c0 -36 -29 -66 -65 -66s-65 29 -65 66c0 38 29 68 65 68z" />
    <glyph glyph-name="dieresis" unicode="&#xa8;" 
d="M147 710c34 0 63 -29 63 -66c0 -36 -28 -65 -63 -65s-64 29 -64 65c0 37 29 66 64 66zM353 710c34 0 63 -29 63 -66c0 -36 -29 -65 -63 -65c-36 0 -63 29 -63 65c0 37 28 66 63 66z" />
    <glyph glyph-name="ring" unicode="&#x2da;" 
d="M250 783c66 0 119 -52 119 -118s-52 -119 -119 -119s-118 53 -118 119s52 118 118 118zM250 731c-36 0 -66 -29 -66 -66c0 -36 30 -67 66 -67c37 0 67 31 67 67c0 37 -30 66 -67 66z" />
    <glyph glyph-name="cedilla" unicode="&#xb8;" 
d="M214 0h48v-57c6 1 11 1 16 1c52 0 81 -28 81 -76c0 -58 -46 -98 -120 -98c-27 0 -53 4 -81 11v47c25 -5 45 -8 61 -8c41 0 62 13 62 37c0 21 -17 33 -47 33c-6 0 -13 -1 -20 -2v112z" />
    <glyph glyph-name="hungarumlaut" unicode="&#x2dd;" 
d="M202 742h109l-145 -190h-58zM366 742h123l-184 -190h-66z" />
    <glyph glyph-name="ogonek" unicode="&#x2db;" 
d="M245 0h54c-33 -30 -50 -66 -50 -99c0 -34 20 -53 56 -53c7 0 18 1 31 3v-68c-19 -5 -38 -7 -55 -7c-68 0 -105 32 -105 90c0 44 24 94 69 134z" />
    <glyph glyph-name="caron" unicode="&#x2c7;" 
d="M96 741h78l76 -125l77 125h77l-110 -190h-88z" />
    <glyph glyph-name="emdash" unicode="&#x2014;" horiz-adv-x="1000" 
d="M0 196v90h1000v-90h-1000z" />
    <glyph glyph-name="AE" unicode="&#xc6;" horiz-adv-x="890" 
d="M262 671h568v-157h-70l-14 88l-14 13h-188v-238h119l14 14l10 72h58v-232h-58l-10 72l-14 14h-119v-260h220l14 16l17 106h68v-179h-523v49l61 5l16 16v175h-223l-105 -176l7 -13l60 -7v-49h-214v49l60 7l328 546l-11 15l-57 5v49zM417 616l-188 -312h188v312z" />
    <glyph glyph-name="ordfeminine" unicode="&#xaa;" horiz-adv-x="408" 
d="M355 559v-180l8 -8l42 -4v-37h-142l-9 37c-46 -29 -86 -44 -126 -44c-61 0 -103 41 -103 95c0 81 72 105 228 137v18c0 51 -20 69 -71 69c-7 0 -16 -1 -27 -4v-66h-74c-26 0 -38 8 -38 29c0 42 65 86 168 86c107 0 144 -36 144 -128zM253 511c-82 -17 -119 -35 -119 -78
c0 -30 19 -49 51 -49c18 0 40 7 68 20v107z" />
    <glyph glyph-name="Lslash" unicode="&#x141;" horiz-adv-x="543" 
d="M27 671h288v-49l-61 -5l-17 -14v-175l97 65l31 -45l-128 -86v-304h193l12 16l15 122h75v-196h-505v49l61 5l17 16v206l-70 -48l-26 47l96 66v262l-14 14l-64 5v49z" />
    <glyph glyph-name="Oslash" unicode="&#xd8;" horiz-adv-x="752" 
d="M583 753l49 -28l-57 -98c93 -74 143 -165 143 -293c0 -106 -39 -198 -109 -263c-61 -57 -142 -87 -236 -87c-54 0 -104 11 -152 35l-59 -102l-46 33l57 98c-86 67 -132 167 -132 286c0 214 134 352 340 352c51 0 99 -10 145 -30zM485 584c-31 26 -65 38 -105 38
c-113 0 -196 -106 -196 -278c0 -76 14 -143 44 -202zM524 538l-260 -446c34 -31 72 -46 116 -46c111 0 193 108 193 281c0 83 -13 152 -49 211z" />
    <glyph glyph-name="OE" unicode="&#x152;" horiz-adv-x="1010" 
d="M365 616c-103 0 -178 -104 -178 -278c0 -179 77 -283 177 -283c103 0 178 104 178 277c0 180 -74 284 -177 284zM540 578v93h407v-157h-69l-13 82l-17 18h-186v-237h119l14 14l8 72h59v-232h-59l-8 71l-15 17h-118v-262h219l14 16l17 106h68v-179h-440v98
c-54 -74 -120 -109 -205 -109c-55 0 -106 15 -149 43c-91 59 -146 168 -146 304c0 208 125 345 305 345c88 0 156 -36 195 -103z" />
    <glyph glyph-name="ordmasculine" unicode="&#xba;" horiz-adv-x="433" 
d="M222 686c118 0 193 -72 193 -184c0 -105 -77 -178 -199 -178c-116 0 -193 73 -193 180c0 109 77 182 199 182zM219 641c-51 0 -82 -47 -82 -136s31 -136 81 -136c53 0 84 47 84 135c0 89 -32 137 -83 137z" />
    <glyph glyph-name="ae" unicode="&#xe6;" horiz-adv-x="768" 
d="M194 346h-89c-29 0 -42 10 -42 37c0 58 81 116 208 116c65 0 110 -16 144 -55c38 36 85 55 138 55c112 0 182 -80 182 -221c0 -8 0 -17 -1 -26h-288v-121c44 -40 92 -62 148 -62c50 0 93 20 140 55v-74c-58 -39 -118 -60 -182 -60c-74 0 -140 26 -194 74
c-67 -49 -128 -74 -187 -74c-80 0 -130 52 -130 134c0 110 89 141 287 188v30c0 73 -28 103 -94 103c-10 0 -24 -1 -40 -5v-94zM328 98v163c-111 -30 -159 -52 -159 -118c0 -46 27 -74 69 -74c23 0 53 9 90 29zM446 304h161v14c0 83 -26 127 -77 127c-55 0 -84 -47 -84 -136
v-5z" />
    <glyph glyph-name="dotlessi" unicode="&#x131;" horiz-adv-x="305" 
d="M173 496h48v-432l15 -15l56 -4v-45h-262v45l54 4l14 15v345h-66v40z" />
    <glyph glyph-name="lslash" unicode="&#x142;" horiz-adv-x="304" 
d="M174 739h44v-298l79 55l31 -45l-110 -76v-309l15 -16l58 -6v-44h-268v44l58 6l14 14v227l-69 -49l-28 46l97 67v297h-72v39z" />
    <glyph glyph-name="oslash" unicode="&#xf8;" horiz-adv-x="577" 
d="M438 571l42 -24l-47 -84c75 -46 114 -119 114 -216c0 -156 -99 -255 -255 -255c-40 0 -76 6 -112 20l-54 -95l-41 27l52 91c-67 49 -100 119 -100 209c0 155 99 254 258 254c32 0 63 -5 94 -15zM355 424c-19 15 -40 22 -65 22c-70 0 -120 -69 -120 -190
c0 -46 5 -88 18 -128zM386 381l-169 -303c18 -22 42 -33 73 -33c77 0 123 68 123 192c0 58 -7 104 -27 144z" />
    <glyph glyph-name="oe" unicode="&#x153;" horiz-adv-x="861" 
d="M282 446c-67 0 -110 -70 -110 -200s44 -201 109 -201c70 0 111 69 111 199c0 131 -42 202 -110 202zM696 308v12c0 82 -29 126 -80 126c-53 0 -89 -49 -96 -138h176zM827 255h-307c0 -116 58 -183 154 -183c55 0 100 17 151 52v-74c-60 -39 -123 -58 -189 -58
c-73 0 -131 26 -178 79c-52 -54 -110 -79 -181 -79c-143 0 -240 100 -240 252c0 154 98 254 243 254c77 0 139 -27 183 -79c46 53 104 79 170 79c121 0 194 -80 194 -223v-20z" />
    <glyph glyph-name="germandbls" unicode="&#xdf;" horiz-adv-x="642" 
d="M538 471c-9 1 -18 2 -27 2c-58 0 -92 -29 -92 -73s32 -61 79 -89c79 -47 124 -83 124 -157c0 -91 -77 -162 -192 -162c-37 0 -80 7 -130 20v143h62l8 -93c16 -10 34 -15 54 -15c51 0 83 31 83 75c0 60 -54 81 -138 128c-44 25 -70 66 -70 113c0 62 42 114 114 131
c6 32 10 57 10 76c0 70 -37 114 -91 114c-84 0 -123 -80 -123 -239v-381l4 -15l32 -5v-44h-227v44l56 6l10 14v374c0 192 111 305 271 305c120 0 194 -71 194 -180c0 -31 -4 -61 -11 -92z" />
    <glyph glyph-name="Aacute" unicode="&#xc1;" horiz-adv-x="651" 
d="M275 678h105l230 -619l59 -10v-49h-270v49l63 6l7 13l-60 170h-218l-60 -169l10 -13l63 -7v-49h-215v49l60 9zM297 541l-87 -247h176zM373 885h128l-151 -153h-67z" />
    <glyph glyph-name="Acircumflex" unicode="&#xc2;" horiz-adv-x="651" 
d="M275 678h105l230 -619l59 -10v-49h-270v49l63 6l7 13l-60 170h-218l-60 -169l10 -13l63 -7v-49h-215v49l60 9zM297 541l-87 -247h176zM282 885h88l110 -153h-76l-78 91l-77 -91h-76z" />
    <glyph glyph-name="Adieresis" unicode="&#xc4;" horiz-adv-x="651" 
d="M275 678h105l230 -619l59 -10v-49h-270v49l63 6l7 13l-60 170h-218l-60 -169l10 -13l63 -7v-49h-215v49l60 9zM297 541l-87 -247h176zM223 877c35 0 63 -29 63 -65c0 -35 -29 -64 -63 -64c-35 0 -64 28 -64 64s29 65 64 65zM429 877c34 0 63 -29 63 -65
c0 -35 -29 -64 -63 -64c-35 0 -63 28 -63 64s28 65 63 65z" />
    <glyph glyph-name="Agrave" unicode="&#xc0;" horiz-adv-x="651" 
d="M275 678h105l230 -619l59 -10v-49h-270v49l63 6l7 13l-60 170h-218l-60 -169l10 -13l63 -7v-49h-215v49l60 9zM297 541l-87 -247h176zM164 885h129l90 -153h-68z" />
    <glyph glyph-name="Aring" unicode="&#xc5;" horiz-adv-x="651" 
d="M316 966c68 0 120 -53 120 -122s-52 -122 -120 -122s-120 53 -120 122s52 122 120 122zM316 911c-35 0 -64 -30 -64 -67s29 -66 64 -66c36 0 65 29 65 66s-29 67 -65 67zM275 678h105l230 -619l59 -10v-49h-270v49l63 6l7 13l-60 170h-218l-60 -169l10 -13l63 -7v-49
h-215v49l60 9zM297 541l-87 -247h176z" />
    <glyph glyph-name="Atilde" unicode="&#xc3;" horiz-adv-x="651" 
d="M275 678h105l230 -619l59 -10v-49h-270v49l63 6l7 13l-60 170h-218l-60 -169l10 -13l63 -7v-49h-215v49l60 9zM297 541l-87 -247h176zM432 880h54v-11c0 -73 -37 -116 -86 -116c-68 0 -112 45 -145 45c-23 0 -37 -17 -37 -48v-6h-54v10c0 76 31 116 87 116
c57 0 104 -46 144 -46c25 0 37 18 37 52v4z" />
    <glyph glyph-name="Ccedilla" unicode="&#xc7;" horiz-adv-x="638" 
d="M601 24c-67 -24 -137 -36 -210 -36c-72 0 -136 16 -184 45c-104 62 -166 174 -166 302c0 102 36 191 104 256c63 61 148 92 252 92c69 0 138 -13 204 -37v-167h-74l-19 107l-14 17c-26 10 -52 15 -79 15c-137 0 -227 -105 -227 -282c0 -179 92 -285 240 -285
c17 0 37 3 61 9l15 15l25 121h72v-172zM298 0h48v-57c6 1 11 1 16 1c52 0 81 -28 81 -76c0 -58 -46 -98 -120 -98c-27 0 -53 4 -81 11v47c25 -5 45 -8 61 -8c41 0 62 13 62 37c0 21 -17 33 -47 33c-6 0 -13 -1 -20 -2v112z" />
    <glyph glyph-name="Eacute" unicode="&#xc9;" horiz-adv-x="596" 
d="M29 0v49l61 5l16 16v533l-16 14l-61 5v49h504v-157h-70l-15 88l-13 13h-199v-238h130l14 14l10 72h59v-232h-59l-10 72l-14 14h-130v-260h232l13 16l17 106h68v-179h-537zM345 885h128l-151 -153h-67z" />
    <glyph glyph-name="Ecircumflex" unicode="&#xca;" horiz-adv-x="596" 
d="M29 0v49l61 5l16 16v533l-16 14l-61 5v49h504v-157h-70l-15 88l-13 13h-199v-238h130l14 14l10 72h59v-232h-59l-10 72l-14 14h-130v-260h232l13 16l17 106h68v-179h-537zM254 885h88l110 -153h-76l-78 91l-77 -91h-76z" />
    <glyph glyph-name="Edieresis" unicode="&#xcb;" horiz-adv-x="596" 
d="M29 0v49l61 5l16 16v533l-16 14l-61 5v49h504v-157h-70l-15 88l-13 13h-199v-238h130l14 14l10 72h59v-232h-59l-10 72l-14 14h-130v-260h232l13 16l17 106h68v-179h-537zM195 877c35 0 63 -29 63 -65c0 -35 -29 -64 -63 -64c-35 0 -64 28 -64 64s29 65 64 65zM401 877
c34 0 63 -29 63 -65c0 -35 -29 -64 -63 -64c-35 0 -63 28 -63 64s28 65 63 65z" />
    <glyph glyph-name="Egrave" unicode="&#xc8;" horiz-adv-x="596" 
d="M29 0v49l61 5l16 16v533l-16 14l-61 5v49h504v-157h-70l-15 88l-13 13h-199v-238h130l14 14l10 72h59v-232h-59l-10 72l-14 14h-130v-260h232l13 16l17 106h68v-179h-537zM136 885h129l90 -153h-68z" />
    <glyph glyph-name="Eth" unicode="&#xd0;" horiz-adv-x="716" 
d="M29 671h291c232 0 361 -126 361 -336c0 -213 -127 -335 -361 -335h-291v49l60 5l16 16v251h-90v61h90v219l-16 16l-60 5v49zM238 615v-233h141v-61h-141v-265h58c159 0 236 93 236 280c0 188 -77 279 -236 279h-58z" />
    <glyph glyph-name="Iacute" unicode="&#xcd;" horiz-adv-x="354" 
d="M30 0v49l66 5l16 16v533l-16 14l-66 5v49h299v-49l-67 -5l-16 -14v-533l16 -16l67 -5v-49h-299zM224 885h128l-151 -153h-67z" />
    <glyph glyph-name="Icircumflex" unicode="&#xce;" horiz-adv-x="354" 
d="M30 0v49l66 5l16 16v533l-16 14l-66 5v49h299v-49l-67 -5l-16 -14v-533l16 -16l67 -5v-49h-299zM133 885h88l110 -153h-76l-78 91l-77 -91h-76z" />
    <glyph glyph-name="Idieresis" unicode="&#xcf;" horiz-adv-x="354" 
d="M30 0v49l66 5l16 16v533l-16 14l-66 5v49h299v-49l-67 -5l-16 -14v-533l16 -16l67 -5v-49h-299zM74 877c35 0 63 -29 63 -65c0 -35 -29 -64 -63 -64c-35 0 -64 28 -64 64s29 65 64 65zM280 877c34 0 63 -29 63 -65c0 -35 -29 -64 -63 -64c-35 0 -63 28 -63 64
s28 65 63 65z" />
    <glyph glyph-name="Igrave" unicode="&#xcc;" horiz-adv-x="354" 
d="M30 0v49l66 5l16 16v533l-16 14l-66 5v49h299v-49l-67 -5l-16 -14v-533l16 -16l67 -5v-49h-299zM15 885h129l90 -153h-68z" />
    <glyph glyph-name="Ntilde" unicode="&#xd1;" horiz-adv-x="727" 
d="M26 0v48l59 8l18 18v529l-14 14l-64 6v48h230v-27l306 -475v428l-18 19l-61 7v48h228v-48l-59 -7l-17 -19v-597h-112l-346 537v-463l16 -18l62 -8v-48h-228zM470 880h54v-11c0 -73 -37 -116 -86 -116c-68 0 -112 45 -145 45c-23 0 -37 -17 -37 -48v-6h-54v10
c0 76 31 116 87 116c57 0 104 -46 144 -46c25 0 37 18 37 52v4z" />
    <glyph glyph-name="Oacute" unicode="&#xd3;" horiz-adv-x="752" 
d="M41 339c0 109 35 197 103 260c63 58 141 87 234 87c86 0 159 -26 220 -78c77 -66 119 -162 119 -275c0 -105 -37 -196 -107 -261c-62 -58 -142 -89 -233 -89c-86 0 -162 27 -222 80c-75 65 -114 160 -114 276zM380 622c-111 0 -190 -106 -190 -285
c0 -183 81 -292 188 -292c110 0 189 108 189 285c0 185 -78 292 -187 292zM423 885h128l-151 -153h-67z" />
    <glyph glyph-name="Ocircumflex" unicode="&#xd4;" horiz-adv-x="752" 
d="M41 339c0 109 35 197 103 260c63 58 141 87 234 87c86 0 159 -26 220 -78c77 -66 119 -162 119 -275c0 -105 -37 -196 -107 -261c-62 -58 -142 -89 -233 -89c-86 0 -162 27 -222 80c-75 65 -114 160 -114 276zM380 622c-111 0 -190 -106 -190 -285
c0 -183 81 -292 188 -292c110 0 189 108 189 285c0 185 -78 292 -187 292zM332 885h88l110 -153h-76l-78 91l-77 -91h-76z" />
    <glyph glyph-name="Odieresis" unicode="&#xd6;" horiz-adv-x="752" 
d="M41 339c0 109 35 197 103 260c63 58 141 87 234 87c86 0 159 -26 220 -78c77 -66 119 -162 119 -275c0 -105 -37 -196 -107 -261c-62 -58 -142 -89 -233 -89c-86 0 -162 27 -222 80c-75 65 -114 160 -114 276zM380 622c-111 0 -190 -106 -190 -285
c0 -183 81 -292 188 -292c110 0 189 108 189 285c0 185 -78 292 -187 292zM273 877c35 0 63 -29 63 -65c0 -35 -29 -64 -63 -64c-35 0 -64 28 -64 64s29 65 64 65zM479 877c34 0 63 -29 63 -65c0 -35 -29 -64 -63 -64c-35 0 -63 28 -63 64s28 65 63 65z" />
    <glyph glyph-name="Ograve" unicode="&#xd2;" horiz-adv-x="752" 
d="M41 339c0 109 35 197 103 260c63 58 141 87 234 87c86 0 159 -26 220 -78c77 -66 119 -162 119 -275c0 -105 -37 -196 -107 -261c-62 -58 -142 -89 -233 -89c-86 0 -162 27 -222 80c-75 65 -114 160 -114 276zM380 622c-111 0 -190 -106 -190 -285
c0 -183 81 -292 188 -292c110 0 189 108 189 285c0 185 -78 292 -187 292zM214 885h129l90 -153h-68z" />
    <glyph glyph-name="Otilde" unicode="&#xd5;" horiz-adv-x="752" 
d="M41 339c0 109 35 197 103 260c63 58 141 87 234 87c86 0 159 -26 220 -78c77 -66 119 -162 119 -275c0 -105 -37 -196 -107 -261c-62 -58 -142 -89 -233 -89c-86 0 -162 27 -222 80c-75 65 -114 160 -114 276zM380 622c-111 0 -190 -106 -190 -285
c0 -183 81 -292 188 -292c110 0 189 108 189 285c0 185 -78 292 -187 292zM482 880h54v-11c0 -73 -37 -116 -86 -116c-68 0 -112 45 -145 45c-23 0 -37 -17 -37 -48v-6h-54v10c0 76 31 116 87 116c57 0 104 -46 144 -46c25 0 37 18 37 52v4z" />
    <glyph glyph-name="Scaron" unicode="&#x160;" horiz-adv-x="568" 
d="M59 22v181h76l16 -120l13 -15c29 -9 58 -14 88 -14c81 0 129 40 129 95s-36 90 -107 126c-40 20 -88 37 -131 74c-46 39 -70 88 -70 137c0 111 93 197 236 197c62 0 125 -12 188 -34v-162h-72l-17 104l-14 14c-19 9 -43 14 -73 14c-73 0 -118 -39 -118 -95
c0 -47 28 -76 81 -108c32 -19 84 -35 143 -72c58 -37 90 -91 90 -150c0 -119 -101 -205 -265 -205c-64 0 -130 11 -193 33zM156 885h76l77 -91l78 91h76l-110 -153h-88z" />
    <glyph glyph-name="Thorn" unicode="&#xde;" horiz-adv-x="587" 
d="M32 671h291v-49l-66 -5l-16 -16v-53h57c185 0 274 -59 274 -201c0 -137 -95 -219 -263 -219c-19 0 -41 1 -68 3v-61l16 -16l66 -5v-49h-291v49l60 5l17 16v533l-14 14l-63 5v49zM241 188c12 -1 24 -2 35 -2c106 0 158 52 158 158c0 99 -52 148 -156 148
c-12 0 -24 -1 -37 -2v-302z" />
    <glyph glyph-name="Uacute" unicode="&#xda;" horiz-adv-x="705" 
d="M20 671h287v-49l-62 -5l-14 -14v-350c0 -129 43 -186 163 -186c111 0 152 62 152 195v337l-15 17l-64 6v49h227v-49l-61 -6l-14 -17v-347c0 -184 -76 -264 -264 -264c-100 0 -173 30 -214 82c-39 50 -44 110 -44 187v346l-14 14l-63 5v49zM437 885h128l-151 -153h-67z
" />
    <glyph glyph-name="Ucircumflex" unicode="&#xdb;" horiz-adv-x="705" 
d="M20 671h287v-49l-62 -5l-14 -14v-350c0 -129 43 -186 163 -186c111 0 152 62 152 195v337l-15 17l-64 6v49h227v-49l-61 -6l-14 -17v-347c0 -184 -76 -264 -264 -264c-100 0 -173 30 -214 82c-39 50 -44 110 -44 187v346l-14 14l-63 5v49zM346 885h88l110 -153h-76
l-78 91l-77 -91h-76z" />
    <glyph glyph-name="Udieresis" unicode="&#xdc;" horiz-adv-x="705" 
d="M20 671h287v-49l-62 -5l-14 -14v-350c0 -129 43 -186 163 -186c111 0 152 62 152 195v337l-15 17l-64 6v49h227v-49l-61 -6l-14 -17v-347c0 -184 -76 -264 -264 -264c-100 0 -173 30 -214 82c-39 50 -44 110 -44 187v346l-14 14l-63 5v49zM287 877c35 0 63 -29 63 -65
c0 -35 -29 -64 -63 -64c-35 0 -64 28 -64 64s29 65 64 65zM493 877c34 0 63 -29 63 -65c0 -35 -29 -64 -63 -64c-35 0 -63 28 -63 64s28 65 63 65z" />
    <glyph glyph-name="Ugrave" unicode="&#xd9;" horiz-adv-x="705" 
d="M20 671h287v-49l-62 -5l-14 -14v-350c0 -129 43 -186 163 -186c111 0 152 62 152 195v337l-15 17l-64 6v49h227v-49l-61 -6l-14 -17v-347c0 -184 -76 -264 -264 -264c-100 0 -173 30 -214 82c-39 50 -44 110 -44 187v346l-14 14l-63 5v49zM228 885h129l90 -153h-68z" />
    <glyph glyph-name="Yacute" unicode="&#xdd;" horiz-adv-x="610" 
d="M-11 671h273v-49l-56 -5l-9 -12l137 -254l143 245l-8 16l-60 11v48h218v-49l-59 -11l-190 -323v-219l16 -14l68 -5v-50h-300v50l67 5l16 14v195l-192 348l-64 10v49zM352 885h128l-151 -153h-67z" />
    <glyph glyph-name="Ydieresis" unicode="&#x178;" horiz-adv-x="610" 
d="M-11 671h273v-49l-56 -5l-9 -12l137 -254l143 245l-8 16l-60 11v48h218v-49l-59 -11l-190 -323v-219l16 -14l68 -5v-50h-300v50l67 5l16 14v195l-192 348l-64 10v49zM202 877c35 0 63 -29 63 -65c0 -35 -29 -64 -63 -64c-35 0 -64 28 -64 64s29 65 64 65zM408 877
c34 0 63 -29 63 -65c0 -35 -29 -64 -63 -64c-35 0 -63 28 -63 64s28 65 63 65z" />
    <glyph glyph-name="Zcaron" unicode="&#x17d;" horiz-adv-x="592" 
d="M62 671h482v-55l-350 -557h256l10 14l18 121h72v-194h-506v55l350 558h-226l-19 -12l-16 -107h-71v177zM161 885h76l77 -91l78 91h76l-110 -153h-88z" />
    <glyph glyph-name="aacute" unicode="&#xe1;" horiz-adv-x="544" 
d="M343 57c-64 -43 -118 -66 -172 -66c-77 0 -131 55 -131 130c0 115 95 145 303 191v30c0 72 -28 104 -94 104c-15 0 -30 -1 -48 -6v-94h-92c-30 0 -46 10 -46 37c0 57 86 116 218 116c141 0 187 -49 187 -177v-259l13 -14l53 -5v-44h-178zM343 98v163
c-118 -26 -171 -52 -171 -118c0 -46 29 -75 75 -75c25 0 57 10 96 30zM325 742h124l-154 -190h-67z" />
    <glyph glyph-name="acircumflex" unicode="&#xe2;" horiz-adv-x="544" 
d="M343 57c-64 -43 -118 -66 -172 -66c-77 0 -131 55 -131 130c0 115 95 145 303 191v30c0 72 -28 104 -94 104c-15 0 -30 -1 -48 -6v-94h-92c-30 0 -46 10 -46 37c0 57 86 116 218 116c141 0 187 -49 187 -177v-259l13 -14l53 -5v-44h-178zM343 98v163
c-118 -26 -171 -52 -171 -118c0 -46 29 -75 75 -75c25 0 57 10 96 30zM228 742h88l110 -190h-77l-77 125l-76 -125h-78z" />
    <glyph glyph-name="adieresis" unicode="&#xe4;" horiz-adv-x="544" 
d="M343 57c-64 -43 -118 -66 -172 -66c-77 0 -131 55 -131 130c0 115 95 145 303 191v30c0 72 -28 104 -94 104c-15 0 -30 -1 -48 -6v-94h-92c-30 0 -46 10 -46 37c0 57 86 116 218 116c141 0 187 -49 187 -177v-259l13 -14l53 -5v-44h-178zM343 98v163
c-118 -26 -171 -52 -171 -118c0 -46 29 -75 75 -75c25 0 57 10 96 30zM169 710c34 0 63 -29 63 -66c0 -36 -28 -65 -63 -65s-64 29 -64 65c0 37 29 66 64 66zM375 710c34 0 63 -29 63 -66c0 -36 -29 -65 -63 -65c-36 0 -63 29 -63 65c0 37 28 66 63 66z" />
    <glyph glyph-name="agrave" unicode="&#xe0;" horiz-adv-x="544" 
d="M343 57c-64 -43 -118 -66 -172 -66c-77 0 -131 55 -131 130c0 115 95 145 303 191v30c0 72 -28 104 -94 104c-15 0 -30 -1 -48 -6v-94h-92c-30 0 -46 10 -46 37c0 57 86 116 218 116c141 0 187 -49 187 -177v-259l13 -14l53 -5v-44h-178zM343 98v163
c-118 -26 -171 -52 -171 -118c0 -46 29 -75 75 -75c25 0 57 10 96 30zM108 742h124l97 -190h-68z" />
    <glyph glyph-name="aring" unicode="&#xe5;" horiz-adv-x="544" 
d="M276 783c65 0 117 -52 117 -118c0 -67 -52 -119 -117 -119s-117 52 -117 122c0 62 53 115 117 115zM276 731c-35 0 -64 -28 -64 -66c0 -37 29 -67 64 -67s65 30 65 67s-29 66 -65 66zM468 322v-259l13 -14l53 -5v-44h-178l-13 57c-64 -43 -118 -66 -172 -66
c-77 0 -131 55 -131 130c0 115 95 145 303 191v30c0 72 -28 104 -94 104c-15 0 -30 -1 -48 -6v-94h-92c-30 0 -46 10 -46 37c0 57 86 116 218 116c141 0 187 -49 187 -177zM343 261c-118 -26 -171 -52 -171 -118c0 -46 29 -75 75 -75c25 0 57 10 96 30v163z" />
    <glyph glyph-name="atilde" unicode="&#xe3;" horiz-adv-x="544" 
d="M343 57c-64 -43 -118 -66 -172 -66c-77 0 -131 55 -131 130c0 115 95 145 303 191v30c0 72 -28 104 -94 104c-15 0 -30 -1 -48 -6v-94h-92c-30 0 -46 10 -46 37c0 57 86 116 218 116c141 0 187 -49 187 -177v-259l13 -14l53 -5v-44h-178zM343 98v163
c-118 -26 -171 -52 -171 -118c0 -46 29 -75 75 -75c25 0 57 10 96 30zM379 722h54v-16c0 -77 -34 -119 -87 -119c-65 0 -114 46 -145 46c-24 0 -37 -19 -37 -53v-10h-55v17c0 77 32 119 87 119c59 0 109 -47 144 -47c26 0 39 18 39 55v8z" />
    <glyph glyph-name="brokenbar" unicode="&#xa6;" 
d="M294 699v-370h-87v370h87zM294 199v-370h-87v370h87z" />
    <glyph glyph-name="ccedilla" unicode="&#xe7;" horiz-adv-x="476" 
d="M464 45c-64 -35 -124 -53 -189 -53c-145 0 -240 101 -240 246c0 152 108 259 258 259c103 0 165 -48 165 -109c0 -39 -30 -68 -72 -68c-21 0 -41 6 -59 19v106c-9 2 -18 3 -25 3c-70 0 -130 -72 -130 -186c0 -120 60 -191 153 -191c21 0 42 4 66 11c22 7 46 18 73 34v-71
zM228 0h48v-57c6 1 11 1 16 1c52 0 81 -28 81 -76c0 -58 -46 -98 -120 -98c-27 0 -53 4 -81 11v47c25 -5 45 -8 61 -8c41 0 62 13 62 37c0 21 -17 33 -47 33c-6 0 -13 -1 -20 -2v112z" />
    <glyph glyph-name="copyright" unicode="&#xa9;" horiz-adv-x="876" 
d="M444 729c99 0 199 -42 271 -116c69 -71 109 -172 109 -277c0 -100 -42 -199 -117 -275c-72 -72 -164 -111 -269 -111c-96 0 -191 41 -264 115s-112 169 -112 274c0 103 39 200 111 275c72 74 169 115 271 115zM444 684c-89 0 -174 -37 -237 -102
c-64 -66 -97 -150 -97 -242c0 -94 34 -178 98 -243c65 -66 145 -101 235 -101c89 0 171 35 234 101c64 66 99 153 99 243c0 92 -36 181 -98 244c-63 64 -149 100 -234 100zM600 548v-121h-53l-15 80c-19 12 -39 18 -61 18c-88 0 -150 -75 -150 -186c0 -114 63 -187 148 -187
c21 0 42 5 64 15l15 86h52v-125c-46 -17 -95 -25 -148 -25c-141 0 -240 97 -240 235c0 137 98 235 247 235c49 0 97 -8 141 -25z" />
    <glyph glyph-name="degree" unicode="&#xb0;" horiz-adv-x="329" 
d="M165 713c80 0 144 -65 144 -145c0 -78 -64 -144 -145 -144c-80 0 -143 64 -143 144c0 81 64 145 144 145zM255 569c0 50 -40 90 -90 90s-91 -40 -91 -90s41 -91 91 -91c51 0 90 41 90 91z" />
    <glyph glyph-name="divide" unicode="&#xf7;" horiz-adv-x="833" 
d="M709 340v-83h-585v83h585zM416 551c37 0 68 -31 68 -68c0 -36 -29 -66 -67 -66s-67 29 -67 66s30 68 66 68zM416 179c37 0 68 -30 68 -67c0 -36 -29 -66 -67 -66s-67 29 -67 66s30 67 66 67z" />
    <glyph glyph-name="eacute" unicode="&#xe9;" horiz-adv-x="524" 
d="M491 124v-74c-66 -39 -137 -59 -207 -59c-149 0 -247 100 -247 251c0 153 103 258 247 258c131 0 208 -82 208 -226v-19h-327v-3c0 -115 62 -183 161 -183c53 0 107 18 165 55zM361 308v11c0 83 -32 126 -87 126c-60 0 -101 -50 -109 -137h196zM334 742h124l-154 -190
h-67z" />
    <glyph glyph-name="ecircumflex" unicode="&#xea;" horiz-adv-x="524" 
d="M491 124v-74c-66 -39 -137 -59 -207 -59c-149 0 -247 100 -247 251c0 153 103 258 247 258c131 0 208 -82 208 -226v-19h-327v-3c0 -115 62 -183 161 -183c53 0 107 18 165 55zM361 308v11c0 83 -32 126 -87 126c-60 0 -101 -50 -109 -137h196zM237 742h88l110 -190h-77
l-77 125l-76 -125h-78z" />
    <glyph glyph-name="edieresis" unicode="&#xeb;" horiz-adv-x="524" 
d="M491 124v-74c-66 -39 -137 -59 -207 -59c-149 0 -247 100 -247 251c0 153 103 258 247 258c131 0 208 -82 208 -226v-19h-327v-3c0 -115 62 -183 161 -183c53 0 107 18 165 55zM361 308v11c0 83 -32 126 -87 126c-60 0 -101 -50 -109 -137h196zM178 710
c34 0 63 -29 63 -66c0 -36 -28 -65 -63 -65s-64 29 -64 65c0 37 29 66 64 66zM384 710c34 0 63 -29 63 -66c0 -36 -29 -65 -63 -65c-36 0 -63 29 -63 65c0 37 28 66 63 66z" />
    <glyph glyph-name="egrave" unicode="&#xe8;" horiz-adv-x="524" 
d="M491 124v-74c-66 -39 -137 -59 -207 -59c-149 0 -247 100 -247 251c0 153 103 258 247 258c131 0 208 -82 208 -226v-19h-327v-3c0 -115 62 -183 161 -183c53 0 107 18 165 55zM361 308v11c0 83 -32 126 -87 126c-60 0 -101 -50 -109 -137h196zM117 742h124l97 -190h-68z
" />
    <glyph glyph-name="eth" unicode="&#xf0;" horiz-adv-x="569" 
d="M346 481c-24 40 -48 71 -70 97l-120 -71l-24 44l109 64l-32 36l-81 4l-3 35l145 54l75 -75l107 62l25 -43l-100 -59c108 -126 162 -246 162 -364c0 -169 -99 -274 -253 -274c-149 0 -251 101 -251 252c0 144 100 243 240 243c24 0 47 -1 71 -5zM373 424
c-25 8 -47 12 -65 12c-84 0 -136 -68 -136 -194c0 -129 44 -198 119 -198c73 0 117 73 117 213c0 67 -11 121 -35 167z" />
    <glyph glyph-name="iacute" unicode="&#xed;" horiz-adv-x="305" 
d="M173 496h48v-432l15 -15l56 -4v-45h-262v45l54 4l14 15v345h-66v40zM206 742h124l-154 -190h-67z" />
    <glyph glyph-name="icircumflex" unicode="&#xee;" horiz-adv-x="305" 
d="M173 496h48v-432l15 -15l56 -4v-45h-262v45l54 4l14 15v345h-66v40zM109 742h88l110 -190h-77l-77 125l-76 -125h-78z" />
    <glyph glyph-name="idieresis" unicode="&#xef;" horiz-adv-x="305" 
d="M173 496h48v-432l15 -15l56 -4v-45h-262v45l54 4l14 15v345h-66v40zM50 710c34 0 63 -29 63 -66c0 -36 -28 -65 -63 -65s-64 29 -64 65c0 37 29 66 64 66zM256 710c34 0 63 -29 63 -66c0 -36 -29 -65 -63 -65c-36 0 -63 29 -63 65c0 37 28 66 63 66z" />
    <glyph glyph-name="igrave" unicode="&#xec;" horiz-adv-x="305" 
d="M173 496h48v-432l15 -15l56 -4v-45h-262v45l54 4l14 15v345h-66v40zM-11 742h124l97 -190h-68z" />
    <glyph glyph-name="logicalnot" unicode="&#xac;" horiz-adv-x="833" 
d="M709 421v-245h-81v164h-504v81h585z" />
    <glyph glyph-name="minus" unicode="&#x2212;" horiz-adv-x="833" 
d="M709 340v-83h-585v83h585z" />
    <glyph glyph-name="mu" unicode="&#xb5;" horiz-adv-x="578" 
d="M33 182l53 250h101l-49 -228c-7 -32 -10 -55 -10 -68c0 -42 26 -67 68 -67c57 0 89 34 105 108l54 255h102l-55 -260c-4 -19 -9 -39 -9 -61c0 -28 16 -44 42 -44c27 0 46 14 63 44c15 27 18 53 36 53c8 0 11 -5 11 -15c0 -14 -10 -58 -28 -91c-26 -46 -61 -70 -107 -70
c-54 0 -85 36 -86 103c-28 -68 -72 -103 -130 -103c-64 0 -103 38 -110 110c-38 -205 -23 -303 -89 -303c-30 0 -48 18 -48 49c0 52 48 160 86 338z" />
    <glyph glyph-name="multiply" unicode="&#xd7;" horiz-adv-x="833" 
d="M421 356l225 224l57 -57l-224 -225l224 -224l-57 -58l-225 225l-224 -225l-57 58l224 224l-224 225l57 57z" />
    <glyph glyph-name="ntilde" unicode="&#xf1;" horiz-adv-x="605" 
d="M31 0v45l51 4l14 15v345h-68v40l144 48h48v-60c71 39 126 60 171 60c92 0 136 -54 136 -165v-268l13 -15l53 -4v-45h-245v45l43 4l14 15v239c0 74 -27 108 -90 108c-25 0 -57 -6 -95 -17v-330l14 -15l44 -4v-45h-247zM410 722h54v-16c0 -77 -34 -119 -87 -119
c-65 0 -114 46 -145 46c-24 0 -37 -19 -37 -53v-10h-55v17c0 77 32 119 87 119c59 0 109 -47 144 -47c26 0 39 18 39 55v8z" />
    <glyph glyph-name="oacute" unicode="&#xf3;" horiz-adv-x="577" 
d="M296 499c153 0 251 -100 251 -258c0 -148 -101 -249 -259 -249c-150 0 -251 100 -251 251c0 154 102 256 259 256zM292 446c-72 0 -116 -70 -116 -200s45 -201 115 -201c74 0 118 69 118 199c0 131 -45 202 -117 202zM342 742h124l-154 -190h-67z" />
    <glyph glyph-name="ocircumflex" unicode="&#xf4;" horiz-adv-x="577" 
d="M296 499c153 0 251 -100 251 -258c0 -148 -101 -249 -259 -249c-150 0 -251 100 -251 251c0 154 102 256 259 256zM292 446c-72 0 -116 -70 -116 -200s45 -201 115 -201c74 0 118 69 118 199c0 131 -45 202 -117 202zM245 742h88l110 -190h-77l-77 125l-76 -125h-78z" />
    <glyph glyph-name="odieresis" unicode="&#xf6;" horiz-adv-x="577" 
d="M296 499c153 0 251 -100 251 -258c0 -148 -101 -249 -259 -249c-150 0 -251 100 -251 251c0 154 102 256 259 256zM292 446c-72 0 -116 -70 -116 -200s45 -201 115 -201c74 0 118 69 118 199c0 131 -45 202 -117 202zM186 710c34 0 63 -29 63 -66c0 -36 -28 -65 -63 -65
s-64 29 -64 65c0 37 29 66 64 66zM392 710c34 0 63 -29 63 -66c0 -36 -29 -65 -63 -65c-36 0 -63 29 -63 65c0 37 28 66 63 66z" />
    <glyph glyph-name="ograve" unicode="&#xf2;" horiz-adv-x="577" 
d="M296 499c153 0 251 -100 251 -258c0 -148 -101 -249 -259 -249c-150 0 -251 100 -251 251c0 154 102 256 259 256zM292 446c-72 0 -116 -70 -116 -200s45 -201 115 -201c74 0 118 69 118 199c0 131 -45 202 -117 202zM125 742h124l97 -190h-68z" />
    <glyph glyph-name="onehalf" unicode="&#xbd;" horiz-adv-x="917" 
d="M205 667h41v-367l7 -10l59 -2v-30h-219v30l63 4l8 10v296l-6 7l-89 -13v31zM637 671h71l-428 -671h-71zM660 61h176l12 53h38v-114h-305v47c133 99 205 165 205 240c0 53 -30 84 -78 84c-11 0 -23 -2 -36 -7v-77c-14 -7 -27 -11 -40 -11c-27 0 -45 17 -45 42
c0 50 57 92 148 92c84 0 138 -48 138 -117c0 -78 -73 -141 -213 -232z" />
    <glyph glyph-name="onequarter" unicode="&#xbc;" horiz-adv-x="917" 
d="M205 667h41v-367l7 -10l59 -2v-30h-219v30l63 4l8 10v296l-6 7l-89 -13v31zM637 671h71l-428 -671h-71zM775 406h61v-250h72v-47h-72v-128h-73v128h-196v48zM763 323l-139 -167h139v167z" />
    <glyph glyph-name="onesuperior" unicode="&#xb9;" horiz-adv-x="366" 
d="M205 667h41v-367l7 -10l59 -2v-30h-219v30l63 4l8 10v296l-6 7l-89 -13v31z" />
    <glyph glyph-name="otilde" unicode="&#xf5;" horiz-adv-x="577" 
d="M296 499c153 0 251 -100 251 -258c0 -148 -101 -249 -259 -249c-150 0 -251 100 -251 251c0 154 102 256 259 256zM292 446c-72 0 -116 -70 -116 -200s45 -201 115 -201c74 0 118 69 118 199c0 131 -45 202 -117 202zM396 722h54v-16c0 -77 -34 -119 -87 -119
c-65 0 -114 46 -145 46c-24 0 -37 -19 -37 -53v-10h-55v17c0 77 32 119 87 119c59 0 109 -47 144 -47c26 0 39 18 39 55v8z" />
    <glyph glyph-name="plusminus" unicode="&#xb1;" horiz-adv-x="833" 
d="M458 589v-163h251v-81h-251v-163h-83v163h-251v81h251v163h83zM709 89v-82h-585v82h585z" />
    <glyph glyph-name="registered" unicode="&#xae;" horiz-adv-x="876" 
d="M444 729c99 0 199 -42 271 -116c69 -71 109 -172 109 -277c0 -100 -42 -199 -117 -275c-72 -72 -164 -111 -269 -111c-96 0 -191 41 -264 115s-112 169 -112 274c0 103 39 200 111 275c72 74 169 115 271 115zM444 684c-88 0 -174 -36 -237 -102
c-63 -65 -97 -150 -97 -238c0 -96 32 -178 95 -244c66 -69 147 -104 238 -104c89 0 171 35 234 101c64 66 99 152 99 243s-35 178 -95 241c-63 66 -149 103 -237 103zM244 559h220c103 0 155 -37 155 -108c0 -59 -40 -98 -119 -113c77 -16 87 -62 108 -119
c16 -45 34 -60 87 -60v-37c-28 -4 -48 -6 -64 -6c-29 0 -55 7 -75 20c-40 26 -43 65 -58 106c-18 51 -43 71 -96 71h-11v-144l57 -11v-37h-201v36l50 11v344l-53 12v35zM391 518v-163c6 0 12 -1 18 -1c71 0 107 28 107 83c0 52 -36 82 -105 82c-6 0 -13 0 -20 -1z" />
    <glyph glyph-name="scaron" unicode="&#x161;" horiz-adv-x="447" 
d="M395 475v-133h-60l-10 75l-12 11c-21 10 -43 16 -66 16c-49 0 -76 -23 -76 -60c0 -42 34 -59 93 -88c89 -43 146 -70 146 -142c0 -101 -75 -165 -204 -165c-48 0 -104 8 -165 25v148h61l11 -86l10 -11c26 -14 55 -21 85 -21c54 0 84 28 84 72c0 55 -54 64 -132 103
c-74 37 -112 72 -112 132c0 87 73 149 196 149c50 0 101 -8 151 -25zM83 741h78l76 -125l77 125h77l-110 -190h-88z" />
    <glyph glyph-name="thorn" unicode="&#xfe;" horiz-adv-x="591" 
d="M25 -219v46l55 5l13 15v805h-73v39l151 48h44v-303c59 41 109 64 158 64c105 0 189 -97 189 -237c0 -160 -101 -264 -264 -264c-22 0 -50 2 -83 6v-160l15 -14l64 -4l-1 -46h-268zM215 60c23 -5 44 -7 64 -7c88 0 148 72 148 193c0 107 -52 167 -133 167
c-23 0 -49 -7 -79 -19v-334z" />
    <glyph glyph-name="threequarters" unicode="&#xbe;" horiz-adv-x="917" 
d="M210 470c77 -6 119 -42 119 -96c0 -67 -68 -123 -170 -123c-83 0 -133 35 -133 75c0 23 19 39 45 39c8 0 15 -1 25 -4l20 -65c17 -6 31 -9 43 -9c48 0 85 36 85 83c0 44 -34 74 -87 74c-9 0 -22 -1 -39 -3v43h17c60 0 94 27 94 74c0 42 -32 71 -78 71
c-11 0 -23 -3 -36 -7v-71c-9 -6 -21 -8 -33 -8c-27 0 -45 17 -45 41c0 44 54 83 140 83c84 0 137 -43 137 -101c0 -48 -36 -81 -104 -96zM637 671h71l-428 -671h-71zM775 406h61v-250h72v-47h-72v-128h-73v128h-196v48zM763 323l-139 -167h139v167z" />
    <glyph glyph-name="threesuperior" unicode="&#xb3;" horiz-adv-x="366" 
d="M210 470c77 -6 119 -42 119 -96c0 -67 -68 -123 -170 -123c-83 0 -133 35 -133 75c0 23 19 39 45 39c8 0 15 -1 25 -4l20 -65c17 -6 31 -9 43 -9c48 0 85 36 85 83c0 44 -34 74 -87 74c-9 0 -22 -1 -39 -3v43h17c60 0 94 27 94 74c0 42 -32 71 -78 71
c-11 0 -23 -3 -36 -7v-71c-9 -6 -21 -8 -33 -8c-27 0 -45 17 -45 41c0 44 54 83 140 83c84 0 137 -43 137 -101c0 -48 -36 -81 -104 -96z" />
    <glyph glyph-name="trademark" unicode="&#x2122;" horiz-adv-x="800" 
d="M111 662h231v-74h-30l-7 44l-7 5h-42v-208l34 -6v-25h-127v25l35 6v208h-42l-7 -5l-7 -44h-31v74zM367 662h113v-13l58 -169l59 168v14h112v-26l-32 -6v-201l32 -6v-25h-115v25l28 6v199l-82 -230h-31l-79 230v-199l30 -6v-25h-93v25l31 6v202l-31 5v26z" />
    <glyph glyph-name="twosuperior" unicode="&#xb2;" horiz-adv-x="366" 
d="M109 319h176l12 53h38v-114h-305v47c133 99 205 165 205 240c0 53 -30 84 -78 84c-11 0 -23 -2 -36 -7v-77c-14 -7 -27 -11 -40 -11c-27 0 -45 17 -45 42c0 50 57 92 148 92c84 0 138 -48 138 -117c0 -78 -73 -141 -213 -232z" />
    <glyph glyph-name="uacute" unicode="&#xfa;" horiz-adv-x="600" 
d="M164 499h48v-310c0 -78 26 -112 95 -112c24 0 53 6 86 16v319h-65v39l142 48h46v-435l14 -15l52 -4v-45h-189v55c-63 -41 -115 -64 -168 -64c-93 0 -137 56 -137 171v250h-65v39zM368 742h124l-154 -190h-67z" />
    <glyph glyph-name="ucircumflex" unicode="&#xfb;" horiz-adv-x="600" 
d="M164 499h48v-310c0 -78 26 -112 95 -112c24 0 53 6 86 16v319h-65v39l142 48h46v-435l14 -15l52 -4v-45h-189v55c-63 -41 -115 -64 -168 -64c-93 0 -137 56 -137 171v250h-65v39zM271 742h88l110 -190h-77l-77 125l-76 -125h-78z" />
    <glyph glyph-name="udieresis" unicode="&#xfc;" horiz-adv-x="600" 
d="M164 499h48v-310c0 -78 26 -112 95 -112c24 0 53 6 86 16v319h-65v39l142 48h46v-435l14 -15l52 -4v-45h-189v55c-63 -41 -115 -64 -168 -64c-93 0 -137 56 -137 171v250h-65v39zM212 710c34 0 63 -29 63 -66c0 -36 -28 -65 -63 -65s-64 29 -64 65c0 37 29 66 64 66z
M418 710c34 0 63 -29 63 -66c0 -36 -29 -65 -63 -65c-36 0 -63 29 -63 65c0 37 28 66 63 66z" />
    <glyph glyph-name="ugrave" unicode="&#xf9;" horiz-adv-x="600" 
d="M164 499h48v-310c0 -78 26 -112 95 -112c24 0 53 6 86 16v319h-65v39l142 48h46v-435l14 -15l52 -4v-45h-189v55c-63 -41 -115 -64 -168 -64c-93 0 -137 56 -137 171v250h-65v39zM151 742h124l97 -190h-68z" />
    <glyph glyph-name="yacute" unicode="&#xfd;" horiz-adv-x="515" 
d="M-4 486h254v-43l-51 -6l-10 -14l108 -283l109 282l-9 15l-53 6v43h192v-43l-54 -9l-193 -469c-49 -118 -120 -184 -186 -184c-48 0 -86 36 -86 74c0 29 18 54 52 71l87 -60c26 21 53 62 78 122l-178 446l-60 9v43zM336 742h124l-154 -190h-67z" />
    <glyph glyph-name="ydieresis" unicode="&#xff;" horiz-adv-x="515" 
d="M-4 486h254v-43l-51 -6l-10 -14l108 -283l109 282l-9 15l-53 6v43h192v-43l-54 -9l-193 -469c-49 -118 -120 -184 -186 -184c-48 0 -86 36 -86 74c0 29 18 54 52 71l87 -60c26 21 53 62 78 122l-178 446l-60 9v43zM180 710c34 0 63 -29 63 -66c0 -36 -28 -65 -63 -65
s-64 29 -64 65c0 37 29 66 64 66zM386 710c34 0 63 -29 63 -66c0 -36 -29 -65 -63 -65c-36 0 -63 29 -63 65c0 37 28 66 63 66z" />
    <glyph glyph-name="zcaron" unicode="&#x17e;" horiz-adv-x="495" 
d="M46 0v62l258 370h-162l-13 -14l-10 -83h-65v151h396v-52l-265 -378h185l15 16l12 92h68v-164h-419zM111 741h78l76 -125l77 125h77l-110 -190h-88z" />
    </font>
</defs>
</svg>
